<?xml version="1.0" standalone="no"?>
<!DOCTYPE svg PUBLIC "-//W3C//DTD SVG 1.1//EN" "http://www.w3.org/Graphics/SVG/1.1/DTD/svg11.dtd" >
<svg xmlns="http://www.w3.org/2000/svg">
<metadata>
<json>
<![CDATA[
{
	"fontFamily": "Cloudicon",
	"majorVersion": 1,
	"minorVersion": 0,
	"description": "Cloudicon\nFont generated by IcoMoon.",
	"designer": "Rúben Rodrigues",
	"license": "For Sale",
	"designerURL": "http://inebur.com/",
	"copyright": "Sale",
	"version": "Version 1.0",
	"fontId": "Cloudicon",
	"psName": "Cloudicon",
	"subFamily": "Regular",
	"fullName": "Cloudicon"
}
]]>
</json>
</metadata>
<defs>
<font id="Cloudicon" horiz-adv-x="1024">
<font-face units-per-em="1024" ascent="960" descent="-64" />
<missing-glyph horiz-adv-x="1024" />
<glyph unicode="&#x20;" horiz-adv-x="512" d="" />
<glyph unicode="&#xe900;" glyph-name="add" data-tags="add" d="M452.46-55c-202.914 0-367.988 165.076-367.988 367.988s165.076 367.988 367.988 367.988c6.562 0 11.87-5.308 11.87-11.87s-5.308-11.872-11.87-11.872c-189.812 0-344.248-154.434-344.248-344.248s154.434-344.248 344.248-344.248 344.236 154.434 344.236 344.248c0 6.56 5.308 11.872 11.872 11.872 6.56 0 11.87-5.31 11.87-11.872-0.002-202.91-165.078-367.986-367.978-367.986zM511.812 123.058h-118.706c-6.56 0-11.872 5.308-11.872 11.87v106.838h-106.834c-6.562 0-11.87 5.308-11.87 11.872v118.706c0 6.56 5.308 11.872 11.87 11.872h106.834v106.834c0 6.562 5.31 11.87 11.872 11.87h118.706c6.564 0 11.87-5.308 11.87-11.87v-106.834h106.836c6.562 0 11.87-5.31 11.87-11.872v-118.706c0-6.562-5.306-11.872-11.87-11.872h-106.836v-106.838c0-6.56-5.306-11.87-11.87-11.87zM404.978 146.798h94.964v106.838c0 6.56 5.31 11.87 11.87 11.87h106.834v94.964h-106.834c-6.56 0-11.87 5.31-11.87 11.872v106.834h-94.964v-106.834c0-6.56-5.308-11.872-11.87-11.872h-106.834v-94.964h106.834c6.562 0 11.87-5.308 11.87-11.87v-106.838zM796.696 479.176h-94.954c-6.562 0-11.872 5.31-11.872 11.87v83.094h-83.096c-6.56 0-11.87 5.31-11.87 11.872v94.964c0 6.562 5.308 11.87 11.87 11.87h83.096v83.094c0 6.562 5.308 11.872 11.872 11.872h94.954c6.56 0 11.872-5.308 11.872-11.872v-83.094h83.094c6.56 0 11.87-5.308 11.87-11.87v-94.964c0-6.562-5.308-11.872-11.87-11.872h-83.094v-83.094c-0.002-6.56-5.312-11.87-11.872-11.87zM713.614 502.916h71.21v83.094c0 6.562 5.31 11.872 11.872 11.872h83.094v71.224h-83.094c-6.56 0-11.872 5.308-11.872 11.87v83.094h-71.21v-83.094c0-6.562-5.31-11.87-11.872-11.87h-83.096v-71.224h83.096c6.56 0 11.872-5.31 11.872-11.872v-83.094zM583.036 764.070h-71.224c-6.56 0-11.87 5.31-11.87 11.87v35.612h-35.612c-6.56 0-11.87 5.31-11.87 11.872v71.224c0 6.56 5.31 11.87 11.87 11.87h35.612v35.61c0 6.562 5.31 11.872 11.87 11.872h71.224c6.562 0 11.872-5.308 11.872-11.872v-35.612h35.612c6.562 0 11.87-5.31 11.87-11.87v-71.224c0-6.562-5.306-11.872-11.87-11.872h-35.612v-35.61c-0.002-6.56-5.31-11.87-11.872-11.87zM523.682 787.812h47.482v35.612c0 6.56 5.31 11.872 11.872 11.872h35.612v47.48h-35.612c-6.56 0-11.872 5.31-11.872 11.872v35.61h-47.482v-35.612c0-6.562-5.306-11.872-11.87-11.872h-35.612v-47.482h35.612c6.564 0 11.87-5.31 11.87-11.872v-35.608z" />
<glyph unicode="&#xe901;" glyph-name="aid" data-tags="aid" d="M894.672-58.746h-749.266c-26.064 0-47.276 21.292-47.276 47.434v746.652c0 26.206 21.212 47.528 47.276 47.528h749.266c26.082 0 47.278-21.276 47.278-47.434v-746.714c0-26.176-21.196-47.466-47.278-47.466zM145.406 750.806c-8.39 0-15.216-6.936-15.216-15.466v-746.652c0-8.484 6.826-15.374 15.216-15.374h749.266c8.39 0 15.216 6.92 15.216 15.404v746.716c0 8.468-6.826 15.374-15.216 15.374h-749.266zM611.704 118.054h-183.282c-8.86 0-16.030 7.17-16.030 16.032v114.964h-114.95c-8.86 0-16.030 7.17-16.030 16.032v183.406c0 8.86 7.168 16.030 16.030 16.030h114.95v114.966c0 8.86 7.17 16.030 16.030 16.030h183.282c8.862 0 16.032-7.17 16.032-16.030v-114.966h114.902c8.862 0 16.032-7.17 16.032-16.030v-183.406c0-8.862-7.17-16.032-16.032-16.032h-114.902v-114.964c-0.002-8.862-7.172-16.032-16.032-16.032zM444.452 150.116h151.222v114.966c0 8.86 7.17 16.030 16.030 16.030h114.904v151.348h-114.904c-8.86 0-16.030 7.17-16.030 16.030v114.966h-151.222v-114.966c0-8.86-7.17-16.030-16.030-16.030h-114.95v-151.348h114.95c8.86 0 16.030-7.17 16.030-16.030v-114.966zM760.484 916.054h-480.888c-8.86 0-16.030 7.17-16.030 16.030 0 8.862 7.17 16.030 16.030 16.030h480.888c8.86 0 16.030-7.168 16.030-16.030 0-8.86-7.17-16.030-16.030-16.030z" />
<glyph unicode="&#xe902;" glyph-name="alarm" data-tags="alarm" d="M525.34 403.41c0.044 0.194 0.090 0.384 0.126 0.582 0.054 0.29 0.096 0.58 0.132 0.872 0.018 0.144 0.038 0.292 0.050 0.438 0.032 0.338 0.044 0.674 0.050 1.012 0.002 0.078 0.012 0.154 0.012 0.234v363.202c0 7.58-6.132 13.714-13.712 13.714s-13.714-6.134-13.714-13.714v-343.226l-296.132 113.896c-7.1 2.678-14.998-0.832-17.73-7.876-2.718-7.072 0.816-15 7.874-17.732l314.778-121.068c0.136-0.052 0.274-0.088 0.412-0.134 0.218-0.076 0.436-0.152 0.66-0.216 0.186-0.054 0.372-0.098 0.556-0.142 0.238-0.058 0.474-0.12 0.716-0.166 0.22-0.042 0.44-0.068 0.66-0.1 0.206-0.030 0.408-0.064 0.616-0.084 0.438-0.042 0.874-0.066 1.306-0.066 0.634 0 1.252 0.058 1.864 0.14 0.122 0.018 0.242 0.036 0.364 0.054 1.272 0.208 2.482 0.588 3.612 1.122 0.052 0.024 0.104 0.048 0.154 0.074 1.154 0.56 2.214 1.278 3.158 2.124 0.076 0.070 0.152 0.138 0.228 0.208 0.456 0.426 0.884 0.876 1.278 1.362 0.040 0.046 0.070 0.098 0.11 0.144 0.364 0.46 0.692 0.948 0.994 1.454 0.054 0.090 0.112 0.176 0.164 0.268 0.31 0.546 0.582 1.118 0.816 1.708 0.018 0.044 0.044 0.084 0.062 0.128 0.048 0.126 0.082 0.258 0.126 0.386 0.082 0.232 0.16 0.464 0.23 0.704 0.070 0.232 0.126 0.466 0.18 0.698zM797.27 55.894c107.35 84.612 176.392 215.768 176.392 362.76 0 254.564-207.102 461.664-461.662 461.664-254.564 0-461.664-207.1-461.664-461.664 0-146.986 69.036-278.138 176.378-362.75l-88.47-88.494c-5.36-5.356-5.36-14.036 0-19.392 2.678-2.678 6.188-4.018 9.696-4.018 3.51 0 7.018 1.34 9.698 4.018l91.376 91.4c74.674-51.95 165.33-82.456 262.988-82.456 97.652 0 188.3 30.502 262.972 82.446l91.388-91.39c2.68-2.678 6.188-4.018 9.698-4.018 3.508 0 7.018 1.34 9.696 4.018 5.358 5.358 5.358 14.036 0 19.392l-88.486 88.484zM256.668 67.624c-0.672 0.598-1.386 1.118-2.136 1.558-107.144 79.158-176.768 206.326-176.768 349.472 0 239.43 194.792 434.236 434.236 434.236 239.43 0 434.234-194.806 434.234-434.236 0-142.742-69.232-269.606-175.866-348.806-1.366-0.654-2.65-1.534-3.782-2.664-0.090-0.090-0.168-0.19-0.254-0.282-71.532-51.872-159.418-82.51-254.332-82.51-95.36 0-183.618 30.922-255.332 83.232zM429.718 925.518h164.566c7.58 0 13.712 6.134 13.712 13.714s-6.132 13.712-13.712 13.712h-164.566c-7.58 0-13.71-6.132-13.71-13.712s6.13-13.714 13.71-13.714z" />
<glyph unicode="&#xe903;" glyph-name="alert" data-tags="alert" d="M867.246-11.418h-706.42c-60.558 0.106-109.61 24.984-134.596 68.27-26.264 45.468-22.774 103.83 9.564 160.060l356.066 613.312c31.912 54.992 75.302 85.278 122.182 85.278 46.856 0 90.246-30.286 122.156-85.278l356.054-614.058c32.284-56.176 35.798-114.298 9.696-159.528-24.93-43.15-74.022-67.95-134.702-68.056zM514.044 888.224c-36.758 0-71.758-25.452-98.582-71.692l-356.042-613.258c-27.342-47.546-30.832-95.946-9.562-132.784 19.978-34.628 60.44-54.552 110.996-54.632h706.34c50.69 0.080 91.206 19.924 111.128 54.446 21.124 36.546 17.58 84.76-9.696 132.224l-356.026 614.004c-26.824 46.242-61.824 71.692-98.556 71.692zM514.044 336.83c-7.538 0-13.638 6.1-13.638 13.638v290.208c0 7.538 6.1 13.638 13.638 13.638 7.54 0 13.638-6.1 13.638-13.638v-290.208c0-7.538-6.1-13.638-13.638-13.638zM512.18 137.162c-37.612 0-68.192 30.606-68.192 68.216 0 37.584 30.58 68.164 68.192 68.164 37.61 0 68.19-30.58 68.19-68.164 0-37.61-30.58-68.216-68.19-68.216zM512.18 246.266c-22.562 0-40.916-18.352-40.916-40.886 0-22.562 18.352-40.942 40.916-40.942 22.56 0 40.914 18.378 40.914 40.942 0 22.534-18.354 40.886-40.914 40.886z" />
<glyph unicode="&#xe904;" glyph-name="alpha" data-tags="alpha" d="M511.184 949.47c-133.924 0-259.836-52.166-354.544-146.888-94.698-94.708-146.836-220.632-146.824-354.558 0.028-276.44 224.954-501.342 501.406-501.342 109.52 0 217.78 36.69 304.826 103.31 5.892 4.506 6.992 12.936 2.514 18.804-4.504 5.888-12.934 6.99-18.8 2.514-82.416-63.088-184.888-97.812-288.542-97.812-261.67 0-474.562 212.882-474.59 474.526-0.012 126.762 49.338 245.956 138.98 335.6 89.63 89.656 208.812 139.032 335.574 139.032 261.684 0 474.592-212.894 474.592-474.578v-48.79c0-73.326-59.656-132.982-132.982-132.982s-132.982 59.656-132.982 132.982v32.67c0.396 5.322 0.604 10.696 0.604 16.118s-0.208 10.794-0.604 16.118v179.088c0 7.41-5.998 13.408-13.406 13.408-7.412 0-13.408-5.996-13.408-13.408v-90.376c-36.792 65.412-106.874 109.702-187.116 109.702-118.292 0-214.532-96.24-214.532-214.532s96.24-214.532 214.532-214.532c85.032 0 158.668 49.726 193.356 121.626 19.194-66.72 80.736-115.684 153.556-115.684 88.12 0 159.798 71.676 159.798 159.796v48.792c0 276.468-224.928 501.396-501.408 501.396zM505.882 260.364c-103.506 0-187.712 84.22-187.712 187.714 0 103.506 84.206 187.714 187.712 187.714 98.448 0 179.45-76.198 187.116-172.718v-29.99c-7.668-96.512-88.67-172.72-187.116-172.72z" />
<glyph unicode="&#xe905;" glyph-name="analytics" data-tags="analytics" d="M11.89 204.572c2.172-1.21 4.536-1.788 6.86-1.788 4.934 0 9.714 2.598 12.296 7.204 32.244 57.656 60.060 87.988 85.046 92.702 23.8 4.672 48.156-15.31 76.166-38.278 11.24-9.222 22.886-18.736 35.53-27.584-1.15-6.010-1.774-12.204-1.774-18.542 0-54.312 44.198-98.514 98.514-98.514s98.5 44.202 98.5 98.514c0 14.176-3.034 27.648-8.448 39.84 48.184 62.154 91.236 169.222 132.912 272.94 30.436 75.682 59.26 147.412 87.876 196.46 16.974-13.86 38.632-22.192 62.202-22.192 25.432 0 48.644 9.692 66.14 25.572 14.538-26.514 29.762-58.334 45.708-91.666 56.182-117.372 114.152-238.522 187.048-238.522 3.928 0 7.942 0.344 11.96 1.070 7.64 1.39 12.726 8.704 11.352 16.358-1.402 7.67-8.852 12.686-16.356 11.354-57.228-10.336-119.074 118.374-168.608 221.89-18.17 37.944-35.41 73.93-52.064 103.074 8.458 14.532 13.33 31.396 13.33 49.384 0 54.314-44.2 98.514-98.512 98.514-54.314 0-98.516-44.2-98.516-98.514 0-20.166 6.104-38.932 16.546-54.566-31.252-51.072-61.84-127.194-94.224-207.73-39.192-97.496-79.606-198.022-123.030-258.146-18.062 20.458-44.452 33.396-73.82 33.396-37.636 0-70.4-21.232-86.984-52.336-9.462 6.992-18.572 14.442-27.432 21.714-32.050 26.294-62.3 51.086-99.256 44.172-34.138-6.458-67.302-40.336-104.382-106.622-3.788-6.786-1.356-15.366 5.42-19.158zM697.57 874.214c38.812 0 70.368-31.568 70.368-70.368s-31.556-70.368-70.368-70.368c-38.812 0-70.37 31.57-70.37 70.368s31.56 70.368 70.37 70.368zM324.528 288.654c25.948 0 48.64-14.13 60.836-35.090 0.252-0.51 0.536-1.004 0.854-1.484 5.518-10.038 8.664-21.554 8.664-33.794 0-38.812-31.554-70.368-70.354-70.368-38.796 0-70.368 31.556-70.368 70.368 0 38.8 31.57 70.368 70.368 70.368zM1005.922 58.146h-985.126c-7.78 0-14.074-6.294-14.074-14.072 0-7.78 6.294-14.074 14.074-14.074h985.126c7.78 0 14.072 6.294 14.072 14.074 0 7.778-6.292 14.072-14.072 14.072z" />
<glyph unicode="&#xe906;" glyph-name="android" data-tags="android" d="M769.344 619.568h-498.872c-7.448 0-13.472-6.026-13.472-13.474v-402.554c0-39.398 31.344-71.432 69.876-71.432h74.644v-172.47c0-7.448 6.026-13.474 13.474-13.474s13.462 6.028 13.46 13.474v172.47h176.87v-172.47c0-7.448 6.026-13.474 13.474-13.474s13.474 6.028 13.474 13.474v172.47h80.642c38.558 0 69.904 32.032 69.904 71.432v402.554c0 7.448-6.026 13.474-13.474 13.474zM755.87 203.54c0-24.528-19.266-44.478-42.954-44.478h-88.83c-1.624 0.694-3.41 1.078-5.29 1.078s-3.666-0.384-5.29-1.078h-193.226c-1.624 0.694-3.408 1.078-5.288 1.078s-3.666-0.384-5.29-1.078h-82.828c-23.674 0-42.926 19.95-42.926 44.478v389.080h471.92v-389.080zM653.892 864.73l39.68 60.84c4.050 6.226 2.314 14.582-3.922 18.648-6.238 4.040-14.582 2.29-18.66-3.934l-42.010-64.406c-68.656 26.768-149.33 26.902-218.574-0.172l-41.524 64.512c-4.028 6.24-12.372 8.042-18.622 4.042-6.264-4.028-8.068-12.372-4.042-18.622l39.312-61.074c-79.45-40.354-128.532-113.506-128.532-192.358 0-7.448 6.026-13.474 13.472-13.474h498.872c7.448 0 13.474 6.026 13.476 13.474 0.002 78.836-49.102 151.984-128.926 192.524zM284.516 685.682c5.408 65.128 49.768 124.598 118.134 157.312l16.252 7.12c63.166 25.186 139.204 25.016 201.58 0.17l6.488-2.838c1.096-0.664 2.242-1.168 3.42-1.498l6.33-2.77c68.774-32.9 113.172-92.382 118.596-157.496h-470.8zM421.572 826.756c-29.728 0-53.902-24.162-53.902-53.85 0-29.754 24.174-53.954 53.902-53.954 29.702 0 53.888 24.2 53.886 53.954 0.002 29.688-24.184 53.85-53.886 53.85zM421.572 745.902c-14.86 0-26.954 12.12-26.954 27.004 0 14.83 12.094 26.898 26.954 26.898 14.858 0 26.938-12.068 26.938-26.898 0-14.884-12.080-27.004-26.938-27.004zM620.85 826.756c-29.74 0-53.928-24.162-53.928-53.85 0-29.754 24.188-53.954 53.928-53.954 29.714 0 53.876 24.2 53.876 53.954 0 29.688-24.164 53.85-53.876 53.85zM620.85 745.902c-14.872 0-26.978 12.12-26.978 27.004 0 14.83 12.106 26.898 26.978 26.898 14.844 0 26.924-12.068 26.924-26.898 0-14.884-12.080-27.004-26.924-27.004zM178.75 619.568c-7.45 0-13.476-6.026-13.476-13.474v-344.624c0-7.45 6.028-13.476 13.476-13.476s13.474 6.028 13.474 13.478v344.622c0.002 7.448-6.026 13.474-13.474 13.474zM861.040 619.568c-7.446 0-13.474-6.026-13.474-13.474v-344.624c0-7.45 6.028-13.476 13.474-13.476s13.476 6.028 13.476 13.478v344.622c0 7.448-6.028 13.474-13.476 13.474z" />
<glyph unicode="&#xe907;" glyph-name="apple" data-tags="apple" d="M511.192 698.24v0c-3.878 0-7.756 0.146-11.61 0.426-6.376 0.452-11.582 5.312-12.486 11.648-8.98 63.188 24.758 125.604 59.322 162.958 40.594 44.192 108.364 76.538 164.792 78.596 8.128 1.116 13.176-4.968 14.026-11.996 6.59-56.134-15.168-118.644-58.18-167.194-40.858-45.92-100.578-74.438-155.864-74.438zM699.146 923.6c-46.41-5.898-100.312-33.46-132.722-68.766-26.94-29.116-55.708-79.22-53.452-129.376 46.596 0.638 98.904 26.116 133.732 65.288 34.564 39.010 53.64 87.772 52.442 132.854zM346.35-56.118c-71.224 0-122.762 61.314-173.596 129.616-101.244 136.258-159.264 361.14-67.384 509.498 48.59 78.584 136.498 128.156 229.424 129.364 0.052 0 2.736 0.026 2.802 0.026 40.022 0 77.534-13.854 110.634-26.074 23.166-8.542 45.030-16.618 60.624-16.618 13.736 0 34.43 7.598 58.392 16.404 40.22 14.758 91.6 33.46 144.68 28.544 38.84-1.58 137.852-14.85 202.434-102.664 2.286-3.082 3.134-6.988 2.39-10.732-0.744-3.76-3.054-7.014-6.322-8.994-26.196-15.088-108.39-70.64-107.274-174.992 1.328-136.204 127.144-183.758 132.484-185.698 3.4-1.248 6.19-3.798 7.706-7.066 1.514-3.268 1.7-7.040 0.476-10.414-7.916-23.458-30.47-82.486-74.864-142.952-42.93-58.42-91.6-124.648-172.016-125.95l-3.426-0.028c-35.36 0-59.774 9.856-83.418 19.368-25.078 10.122-48.776 19.658-87.43 19.658-40.54 0-65.406-9.882-91.706-20.322-23.14-9.194-47.048-18.704-80.442-19.926l-4.168-0.048zM337.596 685.184c-86.166-1.116-165.348-45.748-209.088-116.492-85.57-138.17-29.82-349.902 66.084-478.96 46.53-62.51 93.154-118.644 151.758-118.644l3.202 0.052c28.678 1.038 49.426 9.274 71.37 17.986 26.248 10.44 56.002 22.262 101.748 22.262 43.942 0 72.446-11.502 97.606-21.624 23.164-9.35 43.168-17.4 73.242-17.4l2.974 0.028c66.948 1.088 111.366 61.528 150.524 114.844 36.396 49.546 57.278 97.976 66.948 124.040-35.918 16.87-136.762 75.766-138.012 205.726-1.116 104.962 70.798 166.172 107.354 190.454-57.488 67.93-139.418 78.662-173.21 80.056-5.896 0.532-11.050 0.756-16.206 0.756-41.79 0-81.876-14.718-117.262-27.708-26.38-9.698-49.202-18.066-67.772-18.066-20.456 0-43.434 8.488-70.054 18.304-30.952 11.42-66.046 24.386-101.206 24.386z" />
<glyph unicode="&#xe908;" glyph-name="audio" data-tags="audio" d="M864.38 59.222c-3.342 0-6.686 1.236-9.318 3.738-5.37 5.132-5.58 13.662-0.42 19.058 84.472 88.474 132.938 217.938 132.938 355.218s-48.464 266.756-132.938 355.232c-5.16 5.384-4.95 13.912 0.42 19.058 5.45 5.134 13.926 4.95 19.058-0.448 89.24-93.438 140.414-229.706 140.414-373.844 0-144.152-51.174-280.406-140.414-373.858-2.632-2.758-6.186-4.154-9.74-4.154zM756.398 159.334c-3.502 0-7.004 1.368-9.662 4.052-5.186 5.344-5.080 13.874 0.236 19.086 63.442 61.862 99.822 154.734 99.822 254.766s-36.38 192.904-99.822 254.78c-5.316 5.2-5.422 13.728-0.236 19.058 5.238 5.344 13.742 5.41 19.086 0.238 68.574-66.916 107.93-166.804 107.93-274.076s-39.356-207.172-107.93-274.088c-2.632-2.552-6.028-3.816-9.424-3.816zM649.68 261.392c-3.844 0-7.66 1.63-10.346 4.816-4.766 5.712-4.002 14.214 1.686 19.006 40.722 34.064 65.046 90.898 65.046 152.024 0 62.046-24.904 119.38-66.574 153.312-5.792 4.7-6.66 13.188-1.95 18.966 4.712 5.778 13.214 6.62 18.954 1.934 47.91-39.012 76.526-104.138 76.526-174.214 0-69.022-27.93-133.568-74.682-172.712-2.528-2.106-5.608-3.132-8.66-3.132zM451.722 34.24c-2.87 0-5.686 0.894-8.082 2.686l-271.298 202.906h-145.060c-7.45 0-13.478 6.030-13.478 13.478v367.83c0 7.45 6.028 13.478 13.478 13.478h145.060l271.298 202.932c4.108 3.042 9.582 3.542 14.11 1.264 4.58-2.29 7.45-6.95 7.45-12.056v-779.040c0-5.108-2.87-9.768-7.45-12.056-1.896-0.948-3.976-1.422-6.028-1.422zM40.76 266.79h136.070c2.908 0 5.738-0.948 8.068-2.686l253.344-189.482v725.22l-253.344-189.496c-2.33-1.738-5.16-2.686-8.068-2.686h-136.070v-340.87z" />
<glyph unicode="&#xe909;" glyph-name="award" data-tags="award" d="M522.26-50.298c-132.302 0-239.948 107.622-239.948 239.922s107.646 239.922 239.948 239.922c132.274 0 239.894-107.622 239.894-239.922s-107.62-239.922-239.894-239.922zM522.26 402.886c-117.62 0-213.29-95.672-213.29-213.264s95.672-213.262 213.29-213.262c117.59 0 213.234 95.672 213.234 213.264s-95.644 213.262-213.234 213.262zM425.234 176.292c-7.368 0-13.33 5.962-13.33 13.33 0 60.84 49.514 110.356 110.356 110.356 7.368 0 13.328-5.962 13.328-13.33 0-7.37-5.96-13.328-13.328-13.328-46.158 0-83.698-37.54-83.698-83.698 0-7.366-5.96-13.33-13.328-13.33zM554.592 532.062c-5.57 0-10.778 3.528-12.652 9.112-2.316 6.99 1.458 14.54 8.434 16.858l279.91 93.314-30.020 150.146-0.234 118.672h-555.518v-116.056l-30.302-152.762 279.906-93.314c6.976-2.318 10.754-9.868 8.438-16.858-2.344-7.002-9.844-10.792-16.87-8.42l-291.052 97.024c-6.378 2.122-10.178 8.656-8.85 15.256l32.334 161.692-0.26 126.768c0 7.366 5.962 13.328 13.33 13.328h582.152c7.368 0 13.328-5.962 13.328-13.328v-129.384l32.074-159.076c1.328-6.6-2.472-13.134-8.852-15.256l-291.078-97.024c-1.406-0.47-2.812-0.692-4.218-0.692zM425.234 691.802c-7.368 0-13.33 5.96-13.33 13.328v133.29c0 7.368 5.962 13.328 13.33 13.328s13.328-5.96 13.328-13.328v-133.29c0-7.368-5.96-13.328-13.328-13.328zM619.284 691.802c-7.368 0-13.328 5.96-13.328 13.328v133.29c0 7.368 5.96 13.328 13.328 13.328s13.332-5.96 13.332-13.328v-133.29c0-7.368-5.966-13.328-13.332-13.328z" />
<glyph unicode="&#xe90a;" glyph-name="ballon" data-tags="ballon" d="M516.128 946.278c-294.032 0-436.974-95.768-436.974-292.798 0-227.032 412.114-489.586 429.662-500.652 0.030-0.020 0.062-0.032 0.092-0.048 0.334-0.208 0.684-0.38 1.036-0.558 0.232-0.12 0.458-0.254 0.694-0.358 0.146-0.064 0.298-0.108 0.446-0.166 0.18-0.070 0.36-0.13 0.542-0.194 0.264-0.092 0.522-0.204 0.792-0.28 0.144-0.042 0.296-0.056 0.442-0.094 0.154-0.038 0.308-0.064 0.46-0.096 0.19-0.042 0.376-0.088 0.566-0.12 0.744-0.124 1.492-0.204 2.244-0.204s1.502 0.080 2.248 0.204c0.182 0.032 0.36 0.076 0.54 0.114 0.158 0.034 0.314 0.060 0.47 0.1 0.15 0.038 0.306 0.054 0.458 0.096 0.28 0.078 0.548 0.194 0.822 0.292 0.158 0.054 0.312 0.106 0.468 0.168 0.16 0.062 0.328 0.11 0.486 0.18 0.236 0.104 0.458 0.236 0.69 0.356 0.354 0.178 0.708 0.354 1.042 0.562 0.028 0.018 0.058 0.030 0.088 0.046 17.546 11.064 429.662 273.62 429.662 500.652-0.002 197.030-142.946 292.798-436.976 292.798zM643.506 653.48c0-177.688-93.438-387.818-127.378-458.27-33.942 70.454-127.378 280.584-127.378 458.27 0 237.854 72.704 265.368 127.378 265.368s127.378-27.514 127.378-265.368zM361.316 653.48c0-155.39 66.5-329.524 108.76-424.502-84.968 88.492-238.068 269.478-238.068 424.502 0 150.596 62.484 234.262 195.074 258.144-44.112-43.778-65.766-129.308-65.766-258.144zM670.938 653.48c0 128.838-21.654 214.37-65.768 258.146 132.616-23.878 195.104-107.544 195.104-258.146 0-154.932-153.106-335.944-238.082-424.474 42.26 94.986 108.746 269.1 108.746 424.474zM106.586 653.48c0 129.26 66.366 209.206 206.016 244.37-72.41-46.838-108.024-127.91-108.024-244.37 0-137.84 108.256-289.468 195.31-389.116-122.918 95.668-293.302 252.866-293.302 389.116zM632.474 264.472c87.042 99.65 195.23 251.218 195.23 389.006 0 116.458-35.622 197.528-108.036 244.366 139.64-35.166 206.002-115.112 206.002-244.366 0-136.154-170.288-293.31-293.196-389.006zM594.51 99.762h-156.766c-7.582 0-13.716-6.134-13.716-13.716v-94.082c0-25.69 19.394-45.056 45.084-45.056h94.054c25.69 0 45.058 19.368 45.058 45.056v94.082c0.004 7.58-6.132 13.716-13.714 13.716zM580.796-8.038c0-10.366-7.26-17.624-17.626-17.624h-94.054c-10.394 0-17.654 7.26-17.654 17.624v80.366h129.336v-80.366z" />
<glyph unicode="&#xe90b;" glyph-name="basketshop" data-tags="basketshop" d="M976.896 570.152h-266.79l-131.072 374.718c-2.498 7.096-10.23 10.856-17.326 8.358-7.096-2.484-10.844-10.244-8.346-17.34l127.93-365.736h-330.928l131.218 365.626c2.526 7.070-1.142 14.87-8.212 17.408-7.070 2.512-14.856-1.156-17.408-8.212l-134.522-374.822h-266.812c-19.638 0-35.612-16.238-35.612-36.196v-64.102c0-19.998 15.972-36.276 35.612-36.276h30.296v-445.568c0-19.588 15.944-35.534 35.558-35.534h790.562c19.612 0 35.558 15.946 35.558 35.534v445.568h30.292c19.614 0 35.558 16.278 35.558 36.276v64.102c0.004 19.958-15.94 36.196-35.556 36.196zM985.242 469.854c0-4.996-3.748-9.062-8.346-9.062h-43.902c-7.522 0-13.608-6.086-13.608-13.608v-459.174c0-4.598-3.746-8.318-8.344-8.318h-790.56c-4.598 0-8.346 3.72-8.346 8.318v459.174c0 7.522-6.086 13.608-13.606 13.608h-43.902c-4.624 0-8.396 4.066-8.396 9.062v64.102c0 4.956 3.774 8.982 8.396 8.982v0h276.376c0.004 0 0.008 0 0.012 0s0.008 0 0.012 0h369.418c0.004 0 0.008 0 0.012 0s0.008 0 0.012 0h276.426c4.598 0 8.346-4.026 8.346-8.982v-64.102zM331.016 347.578c-7.522 0-13.608-6.086-13.608-13.606v-272.136c0-7.52 6.086-13.606 13.608-13.606 7.52 0 13.606 6.086 13.606 13.606v272.136c0 7.52-6.086 13.606-13.606 13.606zM700.46 347.578c-7.522 0-13.608-6.086-13.608-13.606v-272.136c0-7.52 6.086-13.606 13.608-13.606 7.52 0 13.606 6.086 13.608 13.606v272.136c-0.002 7.52-6.088 13.606-13.608 13.606z" />
<glyph unicode="&#xe90c;" glyph-name="battery" data-tags="battery" d="M364.248 685.416h-77.058v98.162c0 7.504-6.072 13.576-13.576 13.576s-13.576-6.072-13.576-13.576v-98.162h-97.736v98.162c0 7.504-6.074 13.576-13.578 13.576s-13.574-6.072-13.574-13.576v-98.162h-68.572c-7.504 0-13.576-6.072-13.576-13.576v-91.932c0-53.15 44.888-98.056 98.054-98.056h50.752v-522.9c0-7.504 6.072-13.576 13.576-13.576s13.576 6.074 13.576 13.578v522.898h50.752c54.092 0 98.11 43.99 98.112 98.056v91.932c0 7.504-6.072 13.576-13.576 13.576zM350.67 579.908c0-39.098-31.82-70.904-70.958-70.904h-128.656c-38.422 0-70.902 32.468-70.902 70.904v78.356h270.518v-78.356zM933.018 859.654h-458.358c-25.296 0-46.668-22.194-46.668-48.472v-817.36c0-26.25 21.372-48.448 46.668-48.448h458.358c25.322 0 46.718 22.198 46.718 48.448v817.36c0 26.278-21.396 48.472-46.718 48.472zM952.586-6.18c0-12.196-10.344-21.292-19.568-21.292h-458.358c-10.394 0-19.518 9.944-19.518 21.292v817.36c0 11.362 9.124 21.32 19.518 21.32v0.002h458.358c10.234 0 19.568-10.156 19.568-21.32v-817.362zM541.746 923.53h324.186c7.504 0 13.576 6.072 13.576 13.578 0 7.504-6.072 13.576-13.576 13.576h-324.186c-7.506 0-13.578-6.072-13.578-13.576 0-7.506 6.072-13.578 13.578-13.578zM783.968 389.334l-139.208 15.542 80.344 192.876c2.866 6.92-0.396 14.876-7.318 17.752-6.868 2.904-14.876-0.37-17.766-7.304l-87.292-209.584c-1.642-3.954-1.324-8.434 0.852-12.12 2.174-3.686 5.94-6.126 10.182-6.604l140.032-15.644-63.982-175.88c-2.57-7.050 1.062-14.82 8.116-17.392 1.536-0.556 3.1-0.822 4.638-0.822 5.542 0 10.74 3.422 12.752 8.934l69.896 192.112c1.432 3.896 0.982 8.27-1.22 11.798-2.204 3.526-5.892 5.86-10.026 6.336z" />
<glyph unicode="&#xe90d;" glyph-name="bell" data-tags="bell" d="M917.42 383.54c35.72 104.978 44.84 195.81 27.056 269.962-12.956 54.054-40.042 99.522-80.864 136.126 19.958 39.304 15.546 72.056 7.81 93.23-11.506 31.378-37.708 56.706-70.156 67.756-28.804 9.828-59.778 7.83-87.106-5.646-26.776-13.178-46.906-35.82-56.92-63.834-165.236 24.138-289.462-73.35-361.794-285.894-42.948-126.202-149.708-249.010-196.924-299.196-13.138-7.18-21.926-16.584-26.17-28.134-0.054-0.126-0.096-0.256-0.148-0.384-0.078-0.218-0.174-0.43-0.25-0.65-0.010-0.032-0.016-0.062-0.026-0.094-0.084-0.254-0.152-0.512-0.222-0.77-13.742-43.136 40.59-92.004 92.042-127.114-5.546-44.286 20.536-87.982 64.394-102.92 10.020-3.408 20.424-5.124 30.938-5.124 23.516 0 45.524 8.55 62.552 23.132 38.452-16.846 78.994-32.582 120.708-46.788 116.228-39.53 241.548-66.268 331.094-66.268 64.016 0 109.74 13.678 120.788 46.070 4.146 12.2 2.782 25.292-3.23 38.956-6.792 68.358-16.568 231.168 26.428 357.584zM726.31 920.336c20.732 10.246 44.2 11.76 66.11 4.292 24.644-8.406 44.544-27.554 53.208-51.208 7.556-20.684 6.152-43.23-3.952-65.946-30.126 22.25-66.238 40.598-108.306 54.912-16.568 5.644-32.786 10.194-48.656 13.698 8.040 19.332 22.622 34.914 41.596 44.252zM321.432 586.39c78.388 230.232 214.020 314.292 403.086 250.010 106.844-36.364 171.85-100.044 193.25-189.294 16.544-69.030 7.696-154.74-26.364-254.72-37.268-109.586-36.928-241.558-31.614-323.966-63.306 63.422-199.218 131.724-335.966 178.262-107.448 36.58-212.454 59.75-295.684 65.276-30.558 2.040-56.962 1.578-79-1.296 54.476 62.082 135.054 166.29 172.292 275.728zM97.29 255.31c3.496 3.44 9.856 9.796 18.344 18.692 19.16 8.828 54.342 14.236 110.698 10.55 47.050-3.12 101.42-12.11 159.378-26.126l-60.008-62.178c-9.844 9.502-21.862 17.048-35.652 21.742-10.004 3.378-20.408 5.096-30.892 5.096-37.976 0-72.016-22.256-87.484-56.262-58.56 41.35-77.058 72.006-74.384 88.486zM236.978 61.988c-35.812 12.176-55.042 51.25-42.854 87.106 9.48 27.836 35.616 46.532 65.036 46.532 7.496 0 14.924-1.208 22.068-3.65 35.828-12.202 55.056-51.302 42.856-87.158-11.882-34.892-51.826-54.818-87.106-42.83zM451.186 33.216c-38.162 12.972-75.34 27.266-110.752 42.536 3.93 6.246 7.186 13.012 9.636 20.216 9.184 26.988 5.638 55.276-7.388 78.33l73.656 76.342c32.204-8.582 65.282-18.614 98.634-29.968 200.714-68.286 323.114-153.054 349-201.564 1.29-12.094 2.44-20.934 3.11-25.776-19.488-36.71-182.55-39.534-415.896 39.884zM712.288 660.448c52.858-38.376 80.75-93.366 82.894-163.442 0.242-7.428 6.33-13.302 13.728-13.302 0.136 0 0.272 0 0.432 0 7.56 0.242 13.514 6.572 13.298 14.16-2.438 78.992-34.136 141.17-94.208 184.816-6.088 4.412-14.722 3.11-19.174-3.044-4.452-6.142-3.11-14.722 3.030-19.188z" />
<glyph unicode="&#xe90e;" glyph-name="bitcoin" data-tags="bitcoin" d="M512.338 952.98c-258.204 0-473.878-193.31-501.696-449.66-0.794-7.35 4.514-13.956 11.876-14.752 7.126-0.626 13.942 4.526 14.752 11.876 26.338 242.72 230.568 425.75 475.068 425.75 263.502 0 477.876-214.378 477.876-477.878s-214.376-477.878-477.876-477.878c-244.5 0-448.73 183.042-475.068 425.748-0.81 7.366-7.598 12.764-14.752 11.876-7.364-0.798-12.674-7.404-11.876-14.754 27.818-256.36 243.506-449.656 501.698-449.656 278.276 0 504.662 226.384 504.662 504.664-0.002 278.266-226.388 504.664-504.664 504.664zM512.338 79.17c203.548 0 369.172 165.598 369.172 369.146 0 203.55-165.624 369.146-369.172 369.146-203.54 0-369.134-165.596-369.134-369.146 0-203.548 165.596-369.146 369.134-369.146zM512.338 790.678c188.796 0 342.386-153.578 342.386-342.362 0-188.786-153.59-342.366-342.386-342.366-188.772 0-342.35 153.58-342.35 342.366 0 188.784 153.578 342.362 342.35 342.362zM414.25 448.316v-139.074h-20.494c-7.402 0-13.392-5.99-13.392-13.392 0-7.4 5.988-13.392 13.392-13.392h54.392v-20.48c0-7.4 5.988-13.39 13.39-13.39s13.392 5.99 13.392 13.39v20.48h74.862v-20.48c0-7.4 5.99-13.39 13.39-13.39 7.402 0 13.392 5.99 13.392 13.39v23.192c38.874 9.792 67.744 45.048 67.746 86.93 0 40.402-26.888 74.632-63.704 85.776 18.282 16.418 29.804 40.216 29.806 66.662 0 28.348-13.244 53.65-33.85 70.088v40.032c0 7.4-5.99 13.392-13.392 13.392-7.4 0-13.39-5.99-13.39-13.392v-25.322c-9.098 3.12-18.84 4.838-28.982 4.838h-45.878v20.482c0 7.4-5.99 13.392-13.392 13.392-7.4 0-13.39-5.99-13.39-13.392v-20.482h-54.39c-7.402 0-13.392-5.99-13.392-13.392s5.988-13.392 13.392-13.392h20.496v-139.034c-0.002-0.014-0.004-0.026-0.004-0.040zM554.712 434.924c34.628 0 62.826-28.184 62.826-62.826 0-32.192-24.332-58.794-55.544-62.42-0.248-0.022-0.492-0.058-0.736-0.094-2.152-0.224-4.336-0.342-6.544-0.342h-113.678v125.682h113.676zM583.638 524.536c0-34.644-28.196-62.828-62.826-62.828h-79.778v125.682h79.778c34.63 0 62.826-28.196 62.826-62.854z" />
<glyph unicode="&#xe90f;" glyph-name="blog" data-tags="blog" d="M677.5-49.9h-323.762c-0.62 0-1.212 0.052-1.806 0.132-188.35 2.004-335.626 149.334-335.626 336.116v322.27c0 184.54 151.352 335.72 337.394 337.012h141.608c0.766 0.146 1.714 0.25 2.374 0.21 180.53-1.186 322.562-138.944 331.922-321.070 0.474-1.384 0.71-2.862 0.71-4.39 0-0.962-0.078-1.898-0.29-2.794 4.482-12.158 18.142-36.392 55.694-36.392h44.408c43.642 0 81.904-36.048 81.904-77.132v-217.712c0-192.952-174.384-331.344-331.842-335.984-0.87-0.16-1.766-0.266-2.688-0.266zM355.44-22.896h319.66c0.686 0.13 1.396 0.184 2.11 0.21 145.59 3.032 307.82 130.69 307.82 309.034v217.712c0 25.764-26.688 50.13-54.902 50.13h-44.408c-56.59 0-79.744 42.286-84.094 64.646-0.502 2.69-0.186 5.406 0.816 7.818-10.074 165.198-138.866 289.916-302.624 292.156-0.712-0.118-1.45-0.184-2.214-0.184h-143.81c-174.056-1.2-310.484-137.376-310.484-310.008v-322.27c0-172.304 136.388-308.084 310.51-309.138 0.552-0.002 1.078-0.028 1.62-0.106zM725.942 254.886h-457.048c-7.462 0-13.502 6.040-13.502 13.502s6.040 13.502 13.502 13.502h457.048c7.462 0 13.502-6.040 13.502-13.502s-6.040-13.502-13.502-13.502zM574.496 554.19h-305.602c-7.462 0-13.502 6.040-13.502 13.502s6.040 13.5 13.502 13.5h305.604c7.462 0 13.502-6.038 13.502-13.5s-6.040-13.502-13.504-13.502z" />
<glyph unicode="&#xe910;" glyph-name="bluetooth" data-tags="bluetooth" d="M495.852-55.574c-1.746 0-3.524 0.342-5.192 1.032-5.060 2.094-8.372 7.048-8.372 12.532v466.36l-170.748-159.33c-5.458-5.116-14.042-4.822-19.154 0.66-5.114 5.458-4.822 14.044 0.662 19.156l183.52 171.278-186.116 171.648c-5.51 5.060-5.854 13.644-0.768 19.154s13.696 5.856 19.154 0.77l173.452-159.938v454.7c0 5.484 3.312 10.438 8.372 12.532 5.060 2.066 10.916 0.954 14.782-2.942l251.896-251.79c2.598-2.598 4.028-6.148 3.972-9.83-0.054-3.682-1.618-7.18-4.316-9.67l-240.558-224.502 248.188-228.898c2.73-2.494 4.292-5.99 4.372-9.702 0.078-3.68-1.352-7.258-3.972-9.852l-259.584-259.394c-2.598-2.598-6.066-3.974-9.59-3.974zM509.418 425.802v-435.092l226.438 226.278-226.438 208.814zM509.418 909.702v-422.912l218.804 204.21-218.804 218.702z" />
<glyph unicode="&#xe911;" glyph-name="book" data-tags="book" d="M482.816-2.632c-6.964 0-14.142 1.524-21.37 4.514-16.532 7.532-63.444 27.052-86.744 29.386-32.586 3.254-79.918 4.906-140.658 4.906-84.526 0-165.902-3.28-166.714-3.332-0.028 0-0.052 0-0.078 0-36.392 0-63.128 26.894-63.128 61.212v741.7c0 34.672 28.1 62.878 62.656 62.878h396.006c34.554 0 62.654-28.206 62.654-62.878v-791.132c0-27.812-17.526-47.254-42.624-47.254zM234.044 63.042c61.63 0 109.858-1.708 143.322-5.064 32.496-3.204 92.266-30.306 94.796-31.46 3.516-1.444 7.242-2.282 10.638-2.282 14.234 0 15.77 14.248 15.77 20.386v791.132c0 19.862-16.056 36.010-35.788 36.010h-396.002c-19.73 0-35.79-16.148-35.79-36.010v-741.7c0-19.286 14.982-34.372 34.096-34.372 1.968 0.054 83.87 3.36 168.958 3.36zM541.104-2.552c-8.566 0-16.532 2.282-23.274 6.77-12.238 8.186-19.258 22.904-19.258 40.406h26.868c0-8.5 2.598-14.904 7.32-18.050 4.75-3.202 11.664-3.124 19.52 0.13 2.102 0.968 61.882 28.072 94.368 31.276 101.144 10.152 302.57 2.044 311.124 1.73 9.078-0.498 18.208 3.042 24.876 9.446 6.692 6.48 10.36 15.324 10.36 24.9v741.698c0 19.862-16.054 36.010-35.786 36.010h-395.994c-19.73 0-35.79-16.148-35.79-36.010h-26.868c0 34.672 28.102 62.878 62.656 62.878h395.994c34.554 0 62.656-28.206 62.656-62.878v-741.7c0-16.924-6.586-32.638-18.578-44.21-11.91-11.49-27.918-17.45-44.524-17.002-2.18 0.078-208.196 8.292-307.454-1.574-23.3-2.334-70.214-21.856-86.336-29.204-7.462-3.096-14.876-4.616-21.88-4.616z" />
<glyph unicode="&#xe912;" glyph-name="bookmark" data-tags="bookmark" d="M931.842 789.494h-103.064v56.228c0 59.010-47.968 107.032-106.95 107.032h-629.67c-7.492 0-13.552-6.062-13.552-13.554v-979.646c0-7.492 6.060-13.554 13.552-13.554h629.67c58.98 0 106.95 48.024 106.95 107.056v522.718h103.064c0.936 0 1.85 0.094 2.732 0.276 6.176 1.262 10.818 6.724 10.818 13.278v186.612c0.002 7.492-6.062 13.554-13.55 13.554zM105.712-26.89v952.538h159.474v-952.54h-159.474zM801.672 53.060c0-44.080-35.82-79.952-79.844-79.952h-429.53v952.54h429.532c44.024 0 79.844-35.846 79.844-79.924v-792.664zM918.286 602.882h-89.508v159.502h89.508v-159.502zM628.616 856.524c-7.494 0-13.556-6.062-13.556-13.554v-135.542c0-7.494 6.062-13.556 13.556-13.556 7.492 0 13.552 6.062 13.552 13.554v135.544c0 7.492-6.060 13.554-13.552 13.554z" />
<glyph unicode="&#xe913;" glyph-name="branch" data-tags="branch" d="M747.082 700.226c-0.012 0.252-0.014 0.504-0.040 0.756-0.028 0.292-0.078 0.578-0.124 0.864-0.024 0.144-0.038 0.288-0.064 0.432-0.062 0.314-0.144 0.622-0.228 0.928-0.030 0.114-0.052 0.228-0.086 0.338-0.096 0.32-0.21 0.63-0.328 0.94-0.040 0.098-0.068 0.198-0.11 0.294-0.132 0.324-0.284 0.636-0.44 0.948-0.040 0.080-0.074 0.16-0.116 0.24-0.184 0.348-0.386 0.686-0.6 1.016-0.026 0.038-0.044 0.076-0.068 0.112-1.002 1.514-2.298 2.812-3.81 3.814-0.062 0.042-0.126 0.076-0.19 0.116-0.304 0.194-0.614 0.382-0.936 0.552-0.11 0.058-0.222 0.106-0.334 0.16-0.28 0.138-0.558 0.276-0.848 0.394-0.136 0.056-0.276 0.1-0.412 0.15-0.272 0.102-0.542 0.204-0.822 0.288-0.16 0.048-0.326 0.084-0.488 0.126-0.258 0.068-0.514 0.138-0.778 0.19-0.222 0.044-0.45 0.070-0.674 0.104-0.208 0.030-0.41 0.068-0.622 0.088-0.446 0.044-0.894 0.068-1.342 0.068h-114.302c-7.448 0-13.472-6.026-13.472-13.474s6.024-13.474 13.472-13.474h81.792l-320.046-320.104v542.898l57.844-57.842c2.63-2.632 6.078-3.948 9.526-3.948 3.446 0 6.894 1.316 9.526 3.948 5.264 5.262 5.264 13.79 0 19.052l-79.152 79.15c-2.416 3.622-6.534 6.008-11.216 6.008-4.686 0-8.806-2.388-11.22-6.014l-79.148-79.146c-5.262-5.262-5.262-13.79 0-19.052 5.264-5.264 13.792-5.264 19.052 0l57.842 57.84v-575.416c0-0.008 0-0.014 0-0.020v-233.008c-38.184-6.436-67.37-39.71-67.37-79.7 0-44.58 36.264-80.844 80.844-80.844s80.842 36.264 80.842 80.844c0 39.988-29.182 73.264-67.368 79.7v227.438l339.098 339.162v-81.792c0-7.448 6.026-13.474 13.472-13.474s13.472 6.026 13.472 13.474v114.318c0 0.19-0.020 0.372-0.028 0.558zM421.488 20.844c0-29.708-24.172-53.896-53.896-53.896s-53.896 24.188-53.896 53.896c0 29.71 24.172 53.894 53.896 53.894s53.896-24.184 53.896-53.894z" />
<glyph unicode="&#xe914;" glyph-name="briefcase" data-tags="briefcase" d="M888.412 746.356h-185.396v45.754c0 50.254-40.788 91.134-90.92 91.134h-199.55c-50.146 0-90.948-40.88-90.948-91.134v-45.754h-185.368c-68.618 0-124.442-55.784-124.442-124.362v-420.348c0-68.566 55.822-124.366 124.442-124.366h8.338v-52.724c0-7.56 6.116-13.676 13.674-13.676h177.034c7.558 0 13.676 6.116 13.676 13.676v52.724h326.718v-52.724c0-7.56 6.118-13.676 13.676-13.676h177.034c7.558 0 13.676 6.116 13.676 13.676v52.724h8.36c68.594 0 124.414 55.798 124.414 124.364v420.35c-0.004 68.578-55.824 124.362-124.418 124.362zM348.95 792.11c0 34.066 26.77 61.988 60.33 63.7 1.084 0.054 2.172 0.084 3.268 0.084h199.55c1.096 0 2.184-0.028 3.266-0.084 33.534-1.712 60.304-29.634 60.304-63.7v-45.754h-326.718v45.754zM321.6 38.23h-149.684v39.050h149.684v-39.050zM852.704 38.23h-149.686v39.050h149.686v-39.050zM985.476 201.644c0-53.502-43.536-97.012-97.062-97.012h-752.184c-53.542 0-97.092 43.51-97.092 97.012v420.35c0 53.488 43.55 97.012 97.092 97.012h752.184c53.526 0 97.062-43.524 97.062-97.012v-420.35z" />
<glyph unicode="&#xe915;" glyph-name="browser" data-tags="browser" d="M1005.376 845.26h-982.090c-7.532 0-13.624-6.094-13.624-13.624v-785.608c0-7.53 6.094-13.624 13.624-13.624h982.092c7.528 0 13.624 6.094 13.624 13.622v785.61c-0.002 7.53-6.098 13.624-13.626 13.624zM991.754 818.014v-207.27h-954.844v207.27h954.844zM36.91 59.65v523.846h954.844v-523.846h-954.844zM161.764 659.806c30.066 0 54.532 24.412 54.532 54.412 0 30.094-24.464 54.572-54.532 54.572-30.026 0-54.454-24.478-54.454-54.572 0.002-30 24.428-54.412 54.454-54.412zM161.764 741.544c15.046 0 27.286-12.252 27.286-27.326 0-14.98-12.24-27.166-27.286-27.166-15.006 0-27.208 12.186-27.208 27.166 0.002 15.074 12.202 27.326 27.208 27.326zM305.63 659.806c30.042 0 54.478 24.412 54.478 54.412 0 30.094-24.438 54.572-54.478 54.572-30.050 0-54.504-24.478-54.504-54.572 0-30 24.452-54.412 54.504-54.412zM305.63 741.544c15.022 0 27.234-12.252 27.234-27.326 0-14.98-12.212-27.166-27.234-27.166-15.032 0-27.258 12.186-27.258 27.166 0 15.074 12.224 27.326 27.258 27.326zM449.416 659.806c30.066 0 54.544 24.412 54.542 54.412 0 30.094-24.476 54.572-54.542 54.572-30.012 0-54.424-24.478-54.424-54.572 0-30 24.412-54.412 54.424-54.412zM449.416 741.544c15.060 0 27.298-12.252 27.296-27.326 0-14.98-12.238-27.166-27.296-27.166-14.98 0-27.166 12.186-27.166 27.166 0 15.074 12.186 27.326 27.166 27.326z" />
<glyph unicode="&#xe916;" glyph-name="brush" data-tags="brush" d="M857.544 428.556v154.39c0 0.014 0.002 0.026 0.002 0.040s-0.002 0.026-0.002 0.040v301.644c0 31.704-25.792 57.496-57.468 57.496h-561.728c-31.69 0-57.47-25.794-57.47-57.496v-537.156c0-31.73 25.782-57.522 57.47-57.522h155.138c11.24 0 67.344-2.416 67.344-50.376 0-82.236-17.414-120.77-23.956-135.268l-3.178-6.986c-0.392-0.868-0.696-1.76-0.892-2.68-4.754-12.71-7.17-25.662-7.17-38.554 0-66.85 36.718-110.030 93.558-110.030 56.548 0 94.554 44.206 94.552 110.026 0 12.082-2.126 24.216-6.302 36.166-0.128 3.048-1.262 5.804-3.074 8.014-0.156 0.314-0.236 0.526-0.262 0.526-0.788 1.864-1.864 3.914-3.124 6.304-6.962 13.106-21.436 40.368-21.436 132.48 0 20.25 20.592 50.376 77.326 50.376h143.2c31.678 0 57.468 25.792 57.468 57.522v80.966c0 0.014 0.002 0.026 0.002 0.040s0.002 0.024 0.002 0.038zM207.776 569.538h622.872v-127.574h-622.872v127.574zM238.35 915.268h561.722c16.866 0 30.574-13.722 30.574-30.598v-288.236h-622.87v288.236c0 16.876 13.712 30.598 30.574 30.598zM800.072 316.89h-143.2c-76.458 0-104.22-46.204-104.22-77.276 0-98.808 16.6-130.064 24.556-145.092 0.892-1.68 1.682-3.124 2.26-4.412l0.472 0.21c0.132-1.208 0.396-2.39 0.868-3.546 4.020-10.164 6.042-20.486 6.042-30.65 0-40.186-17.784-83.128-67.66-83.128-49.144 0-66.662 42.942-66.662 83.128 0 10.164 2.022 20.486 6.042 30.65 0.158 0.37 0.29 0.736 0.392 1.13 0.42 0.946 0.998 2.18 1.026 2.284l1.39 3.072c7.198 15.944 26.344 58.31 26.344 146.352 0 60.988-59.202 77.276-95.172 77.276 0 0-0.014 0-0.026 0h-154.178c-16.864 0-30.574 13.734-30.574 30.624v67.556h622.872v-67.554c0.002-16.89-13.706-30.624-30.572-30.624z" />
<glyph unicode="&#xe917;" glyph-name="bubble" data-tags="bubble" d="M511.972 954.816c-260.89 0-473.166-212.274-473.166-473.194 0-153.952 74.548-297.602 199.966-386.416l-46.124-138.314c-1.742-5.284-0.16-11.076 4.048-14.722 2.548-2.2 5.738-3.352 8.984-3.352 2.090 0 4.182 0.482 6.142 1.45l171.646 85.838c41.588-11.718 84.792-17.674 128.5-17.674 260.944 0 473.22 212.276 473.22 473.192 0.004 260.918-212.272 473.192-473.216 473.192zM511.974 35.89c-42.904 0-85.3 6.058-125.954 18.042-3.38 0.994-6.92 0.674-10.030-0.88l-146.79-73.396 38.882 116.652c1.93 5.844-0.242 12.28-5.336 15.712-123.034 83.128-196.482 221.284-196.482 369.6 0 245.768 199.94 445.734 445.708 445.734 245.794 0 445.762-199.966 445.764-445.734-0.002-245.766-199.97-445.73-445.762-445.73zM304.176 509.942c-48.428 0-87.848-39.42-87.848-87.85 0-48.456 39.42-87.876 87.848-87.876 48.456 0 87.876 39.42 87.876 87.876 0 48.43-39.42 87.85-87.876 87.85zM304.176 361.678c-33.304 0-60.388 27.108-60.388 60.414s27.084 60.39 60.388 60.39c33.306 0 60.416-27.086 60.416-60.39 0-33.302-27.11-60.414-60.416-60.414zM688.61 669.226c0 48.43-39.42 87.85-87.85 87.85-48.456 0-87.902-39.42-87.902-87.85 0-48.456 39.446-87.876 87.902-87.876 48.43 0 87.85 39.42 87.85 87.876zM540.316 669.226c0 33.306 27.112 60.39 60.444 60.39 33.306 0 60.388-27.082 60.388-60.39 0-33.306-27.082-60.416-60.388-60.416-33.332 0-60.444 27.11-60.444 60.416zM650.156 411.098c-48.434 0-87.854-39.42-87.854-87.848 0-48.456 39.42-87.904 87.854-87.904 48.456 0 87.898 39.448 87.898 87.904 0.002 48.428-39.442 87.848-87.898 87.848zM650.156 262.804c-33.306 0-60.39 27.114-60.39 60.446 0 33.304 27.084 60.386 60.39 60.386 33.33 0 60.442-27.082 60.442-60.386 0-33.332-27.112-60.446-60.442-60.446z" />
<glyph unicode="&#xe918;" glyph-name="builder" data-tags="builder" d="M802.094 438.572h-29.208v71.99c0 7.486-6.056 13.544-13.544 13.544h-23.18l60.268 159.54c41.188 4.036 72.4 40.734 78.734 93.878 7.988 66.8-25.476 148.864-117.754 171.194-5.396 1.19-11.034-0.82-14.26-5.37-3.2-4.552-3.28-10.61-0.236-15.24 26.878-40.9 6.272-66.904-15.556-94.418-8.864-11.192-17.248-21.774-22.088-33.282-14.846-35.304-6.558-70.488 19.714-93.222l-101.904-183.080h-21.284v414.162c0 7.486-6.054 13.544-13.542 13.544h-171.088c-7.486 0-13.544-6.056-13.544-13.544v-414.162h-21.242l-103.042 185.506c-0.050 0.090-0.116 0.17-0.168 0.258-0.184 0.314-0.39 0.62-0.602 0.922-0.080 0.11-0.146 0.23-0.226 0.338-0.004 0.004-0.008 0.010-0.012 0.016-0.326 0.432-0.676 0.832-1.042 1.214-0.082 0.086-0.168 0.166-0.252 0.248-0.32 0.318-0.65 0.616-0.992 0.896-0.090 0.074-0.18 0.148-0.274 0.218-0.418 0.324-0.85 0.626-1.296 0.896-0.010 0.006-0.020 0.014-0.030 0.020l-0.026 0.016c-0.066 0.040-0.13 0.080-0.196 0.118l-106.716 64.022c-4.55 2.752-10.212 2.566-14.578-0.422-4.368-2.962-6.618-8.202-5.742-13.414l21.374-128.31c0.014-0.084 0.044-0.162 0.058-0.244 0.086-0.474 0.2-0.944 0.338-1.41 0.048-0.16 0.090-0.322 0.144-0.48 0.184-0.542 0.404-1.078 0.662-1.6 0.016-0.034 0.026-0.068 0.042-0.102l54.376-108.706h-20.88c-7.488 0-13.544-6.058-13.544-13.544v-470.488c0-54.628 44.444-99.074 99.102-99.074h384.93c54.656 0 99.102 44.446 99.1 99.074v114.792h29.208c78.226 0 141.854 63.624 141.854 141.852-0.002 78.232-63.63 141.854-141.856 141.854zM730.24 789.904c3.412 8.070 10.66 17.25 18.36 26.932 18.624 23.518 42.804 54.022 31.508 95.134 54.182-26.72 73.838-83.652 68.15-131.246-3.866-32.46-21.776-70.372-59.45-70.372h-0.026c-8.702 0-18.094 2.118-27.91 6.244-3.508 1.478-6.76 3.154-9.78 4.99-0.586 0.468-1.208 0.904-1.884 1.28-0.18 0.1-0.366 0.18-0.546 0.27-22.386 14.986-29.696 39.974-18.422 66.768zM747.908 692.71c0.81-0.366 1.61-0.74 2.438-1.088 6.032-2.536 12.014-4.476 17.92-5.864l-61.066-161.652h-53.134l93.842 168.604zM430.71 924.722h143.998v-58.466h-71.986c-7.486 0-13.544-6.058-13.544-13.546 0-7.486 6.058-13.544 13.544-13.544h71.986v-58.442h-29.236c-7.482 0-13.542-6.056-13.542-13.544s6.058-13.546 13.542-13.546h29.236v-58.44h-71.986c-7.486 0-13.544-6.058-13.544-13.546 0-7.486 6.058-13.544 13.544-13.544h71.986v-58.468h-29.236c-7.482 0-13.542-6.056-13.542-13.544s6.058-13.546 13.542-13.546h29.236v-58.44h-143.998v400.616zM243.222 701.772l-51.61-38.7-12.892 77.414 64.502-38.714zM199.088 634.806l64.090 48.056 88.216-158.756h-96.932l-55.374 110.7zM745.796 40.074c0-39.682-32.3-71.984-72.010-71.984h-384.93c-39.71 0-72.012 32.302-72.012 71.984v456.94h528.952v-456.94zM802.094 181.956h-29.208v229.528h29.208c63.282 0 114.764-51.482 114.764-114.764s-51.482-114.764-114.764-114.764z" />
<glyph unicode="&#xe919;" glyph-name="bulb" data-tags="bulb" d="M519.96 100.788c-68.208 0-105.472 8.196-124.646 27.46-17.144 17.208-17.050 39.534-16.958 63.146 0.092 24.8 0.198 52.922-18.962 83.492-17.698 28.254-40.256 58.35-64.134 90.212-59.258 79.064-120.534 160.818-120.534 231.766 0 192.548 154.874 349.204 345.236 349.204s345.25-156.654 345.25-349.204c0-70.974-61.276-152.726-120.522-231.792-23.878-31.864-46.438-61.96-64.122-90.188-19.188-30.57-19.082-58.692-18.976-83.492 0.080-23.64 0.158-45.962-16.998-63.172-19.162-19.238-56.454-27.432-124.634-27.432zM519.96 919.082c-175.484 0-318.25-144.544-318.25-322.216 0-61.96 58.534-140.076 115.144-215.584 24.22-32.336 47.11-62.856 65.414-92.056 23.296-37.212 23.178-70.87 23.074-97.936-0.092-22.192 0.29-35.156 9.092-44.012 13.072-13.124 47.596-19.504 105.526-19.504 57.928 0 92.426 6.378 105.526 19.504 8.802 8.856 9.198 21.82 9.118 44.012-0.104 27.066-0.236 60.722 23.088 97.936 18.292 29.174 41.166 59.72 65.386 92.032 56.612 75.534 115.144 153.624 115.144 215.61 0 177.67-142.764 322.214-318.262 322.214zM608.406 12.312h-176.894c-7.458 0-13.494 6.036-13.494 13.494s6.036 13.494 13.494 13.494h176.894c7.458 0 13.494-6.036 13.494-13.494s-6.036-13.494-13.494-13.494zM608.406-54.048h-176.894c-7.458 0-13.494 6.036-13.494 13.494s6.036 13.494 13.494 13.494h176.894c7.458 0 13.494-6.038 13.494-13.494 0-7.46-6.036-13.494-13.494-13.494zM608.406 543.102c-3.454 0-6.906 1.318-9.542 3.954l-123.13 123.182-123.17-123.182c-5.272-5.272-13.81-5.272-19.082 0s-5.272 13.81 0 19.082l132.71 132.724c2.53 2.53 5.956 3.954 9.542 3.954v0c3.584 0 7.010-1.424 9.54-3.954l132.67-132.724c5.272-5.272 5.272-13.81 0-19.082-2.632-2.638-6.084-3.954-9.538-3.954zM707.976 543.102c-3.454 0-6.904 1.318-9.542 3.954l-123.182 123.182-123.184-123.182c-5.272-5.272-13.81-5.272-19.082 0s-5.27 13.81 0 19.082l132.724 132.724c5.272 5.27 13.81 5.27 19.080 0l132.724-132.724c5.272-5.272 5.272-13.81 0-19.082-2.634-2.638-6.086-3.954-9.538-3.954z" />
<glyph unicode="&#xe91a;" glyph-name="businesman" data-tags="businesman" d="M683.802 662.604h-293.488c-6.182 0-11.576 4.208-13.076 10.208l-65.248 260.914c-1 4.012-0.104 8.288 2.448 11.55 2.552 3.276 6.472 5.184 10.628 5.184h423.956c4.158 0 8.078-1.908 10.628-5.184 2.552-3.262 3.448-7.524 2.448-11.55l-65.222-260.914c-1.5-6-6.894-10.208-13.074-10.208zM400.838 689.544h272.438l58.486 233.972h-389.438l58.514-233.972zM520.758-54.812c-2.314 0-4.604 0.578-6.684 1.762l-228.29 130.418c-5.026 2.894-7.656 8.656-6.526 14.34l97.846 489.192c1.474 7.314 8.892 12.062 15.838 10.564 7.314-1.46 12.048-8.55 10.576-15.852l-95.952-479.666 213.188-121.762 213.714 122.104-64.040 480.194c-0.972 7.366 4.21 14.14 11.578 15.128 7.234 1.052 14.154-4.184 15.152-11.576l65.222-489.166c0.71-5.448-1.92-10.762-6.682-13.498l-228.264-130.418c-2.072-1.186-4.362-1.764-6.676-1.764zM422.886 238.7c-6.446 0-12.154 4.658-13.26 11.262-1.21 7.34 3.736 14.286 11.076 15.496l195.666 32.57c7.184 1.344 14.26-3.708 15.496-11.076 1.21-7.34-3.734-14.286-11.076-15.496l-195.666-32.572c-0.736-0.132-1.5-0.184-2.236-0.184zM422.886 108.228c-6.446 0-12.154 4.658-13.26 11.262-1.236 7.34 3.736 14.286 11.076 15.496l195.666 32.624c7.184 1.342 14.26-3.71 15.496-11.076 1.238-7.342-3.734-14.288-11.076-15.498l-195.666-32.624c-0.736-0.13-1.5-0.184-2.236-0.184z" />
<glyph unicode="&#xe91b;" glyph-name="calendar" data-tags="calendar" d="M990.656 904.212h-188.696v36.952c0 7.54-6.102 13.64-13.638 13.64-7.54 0-13.64-6.1-13.64-13.64v-36.952h-503.782v36.952c0 7.54-6.102 13.64-13.64 13.64-7.542 0-13.64-6.1-13.64-13.64v-36.952h-213.98c-7.538 0-13.638-6.1-13.638-13.64v-935.736c0-7.538 6.1-13.64 13.638-13.64h961.018c7.542 0 13.64 6.102 13.64 13.64v935.736c0 7.54-6.1 13.64-13.642 13.64zM43.282 876.932h200.338v-11.642c0-7.538 6.1-13.64 13.64-13.64s13.64 6.1 13.64 13.64v11.642h503.78v-11.642c0-7.538 6.1-13.64 13.64-13.64s13.638 6.1 13.638 13.64v11.642h175.060v-200.312h-933.736v200.312zM43.28-31.522v680.86h933.74v-680.86h-933.74zM216.288 571.468c-5.328 5.328-13.958 5.328-19.288 0-5.33-5.33-5.33-13.962 0-19.29l64.496-64.498c2.664-2.664 6.154-3.996 9.642-3.996 3.49 0 6.982 1.332 9.646 3.996 5.328 5.33 5.328 13.962 0 19.29l-64.496 64.498zM216.288 369.128c-5.328 5.328-13.958 5.328-19.288 0s-5.33-13.96 0-19.29l64.496-64.496c2.664-2.664 6.154-3.996 9.642-3.996 3.49 0 6.982 1.332 9.646 3.996 5.328 5.33 5.328 13.962 0 19.292l-64.496 64.494zM494.498 369.128c-5.33 5.328-13.96 5.332-19.29 0-5.328-5.328-5.328-13.96 0-19.29l64.446-64.496c2.664-2.664 6.152-3.996 9.642-3.996 3.492 0 6.98 1.332 9.644 3.996 5.328 5.33 5.328 13.962 0 19.292l-64.442 64.494zM747.402 369.128c-5.33 5.328-13.96 5.332-19.29 0-5.328-5.328-5.328-13.96 0-19.29l64.47-64.496c2.662-2.664 6.152-3.996 9.64-3.996 3.49 0 6.982 1.332 9.646 3.996 5.328 5.33 5.328 13.962 0 19.292l-64.466 64.494zM494.498 166.818c-5.33 5.328-13.96 5.328-19.29 0s-5.328-13.958 0-19.288l64.446-64.5c2.664-2.664 6.152-3.996 9.642-3.996 3.492 0 6.98 1.332 9.644 3.996 5.328 5.33 5.328 13.962 0 19.292l-64.442 64.496zM216.288 166.818c-5.328 5.328-13.958 5.328-19.288 0s-5.33-13.958 0-19.288l64.496-64.5c2.664-2.664 6.154-3.996 9.642-3.996 3.49 0 6.982 1.332 9.646 3.996 5.328 5.33 5.328 13.962 0 19.292l-64.496 64.496zM524.042 483.684c3.492 0 6.982 1.332 9.646 3.996 5.328 5.33 5.328 13.962 0 19.29l-64.472 64.498c-5.33 5.328-13.958 5.33-19.288 0s-5.328-13.962 0-19.29l64.47-64.498c2.664-2.664 6.154-3.996 9.644-3.996zM747.402 571.468c-5.33 5.328-13.96 5.33-19.29 0s-5.328-13.962 0-19.29l64.47-64.498c2.662-2.664 6.152-3.996 9.64-3.996 3.49 0 6.982 1.332 9.646 3.996 5.328 5.33 5.328 13.962 0 19.29l-64.466 64.498z" />
<glyph unicode="&#xe91c;" glyph-name="card" data-tags="card" d="M880.522 86.9h-733.274c-74.58 0-135.248 60.682-135.248 135.248v336.74c0 7.5 6.068 13.568 13.566 13.568h976.634c7.5 0 13.568-6.068 13.568-13.568v-336.74c0.002-74.566-60.68-135.248-135.246-135.248zM39.134 545.322v-323.174c0-59.622 48.504-108.114 108.114-108.114h733.274c59.622 0 108.114 48.492 108.114 108.114v323.174h-949.502zM1002.202 624.738h-976.636c-7.5 0-13.566 6.068-13.566 13.568v7.95c0 74.606 60.666 135.3 135.248 135.3h733.274c74.566 0 135.248-60.696 135.248-135.3v-7.95c0-7.5-6.068-13.568-13.568-13.568zM39.28 651.872h949.222c-2.942 57.038-50.24 102.548-107.98 102.548h-733.274c-57.728 0-105.040-45.51-107.968-102.548zM866.69 338.422h-352.786c-7.5 0-13.568 6.068-13.568 13.568 0 7.498 6.068 13.566 13.568 13.566h352.786c7.5 0 13.566-6.068 13.566-13.566 0-7.5-6.066-13.568-13.566-13.568z" />
<glyph unicode="&#xe91d;" glyph-name="cart" data-tags="cart" d="M212.596 847.944c0 7.436-6.016 13.452-13.454 13.452h-175.146c-7.438 0-13.454-6.016-13.454-13.452s6.016-13.454 13.454-13.454h175.146c7.438 0 13.454 6.018 13.454 13.454zM989.368 781.914h-834.064c-13.056 0-23.674-10.614-23.516-25.722l70.16-452.854c-0.504-1.816-0.646-3.764-0.322-5.746l15.962-97.74c1.878-13.374 13.506-23.462 27.024-23.462h35.372c-3.392-10.452-5.248-21.588-5.248-33.156 0-59.354 48.282-107.624 107.622-107.624 59.342 0 107.622 48.266 107.622 107.624 0 11.568-1.856 22.706-5.248 33.156h210.090c-3.39-10.452-5.246-21.588-5.246-33.156 0-59.354 48.268-107.624 107.596-107.624 59.354 0 107.644 48.266 107.644 107.624 0 59.356-48.292 107.622-107.644 107.622-37.114 0-69.898-18.888-89.246-47.564-0.056 0-0.112 0.008-0.168 0.008h-235.962c-0.058 0-0.114-0.008-0.172-0.008-19.354 28.676-52.144 47.564-89.268 47.564s-69.916-18.89-89.27-47.568c-0.052 0-0.102 0.008-0.154 0.008l-48.74 0.576-11.138 68.232 686.684 101.27c11.932 0 21.65 10.64 21.388 21.074l71.94 363.796c0 13.054-10.64 23.67-23.698 23.67zM797.168 223.948c44.508 0 80.74-36.208 80.74-80.714s-36.232-80.714-80.74-80.714c-44.484 0-80.692 36.208-80.692 80.714s36.208 80.714 80.692 80.714zM382.356 223.948c44.51 0 80.716-36.208 80.716-80.714s-36.208-80.714-80.716-80.714-80.716 36.208-80.716 80.714 36.208 80.714 80.716 80.714zM915.010 399.722l-685.296-100.892-70.678 456.18h826.232l-70.258-355.288zM358.172 446.442c7.434 0 13.452 6.016 13.452 13.452v188.336c0 7.436-6.016 13.452-13.452 13.452-7.438 0-13.456-6.016-13.456-13.452v-188.336c0.002-7.436 6.020-13.452 13.456-13.452zM496.442 446.442c7.436 0 13.452 6.016 13.452 13.452v188.336c0 7.436-6.016 13.452-13.452 13.452s-13.454-6.016-13.454-13.452v-188.336c0-7.436 6.018-13.452 13.454-13.452zM634.712 446.442c7.434 0 13.454 6.016 13.456 13.452v188.336c0 7.436-6.020 13.452-13.456 13.452s-13.454-6.016-13.454-13.452v-188.336c0-7.436 6.018-13.452 13.454-13.452zM772.97 446.442c7.436 0 13.454 6.016 13.456 13.452v188.336c0 7.436-6.018 13.452-13.456 13.452-7.436 0-13.454-6.016-13.454-13.452v-188.336c0-7.436 6.018-13.452 13.454-13.452z" />
<glyph unicode="&#xe91e;" glyph-name="cartdown" data-tags="cartdown" d="M209.668 851.932c0 7.508-6.078 13.586-13.588 13.586h-176.894c-7.508 0-13.586-6.078-13.586-13.586s6.076-13.586 13.586-13.586h176.894c7.512 0 13.588 6.078 13.588 13.586zM994.21 785.246h-842.406c-13.188 0-23.91-10.722-23.75-25.98l70.86-457.38c-0.508-1.832-0.65-3.796-0.324-5.796l16.122-98.718c1.896-13.508 13.638-23.698 27.292-23.698h35.738c-3.426-10.556-5.3-21.804-5.3-33.49 0-59.948 48.748-108.696 108.682-108.696 59.948 0 108.708 48.748 108.708 108.696 0 11.686-1.874 22.934-5.3 33.49h212.19c-3.426-10.556-5.298-21.804-5.298-33.49 0-59.948 48.748-108.696 108.64-108.696 59.974 0 108.748 48.748 108.748 108.696 0 59.95-48.776 108.7-108.748 108.7-37.468 0-70.574-19.080-90.112-48.044-0.064 0-0.128 0.010-0.194 0.010h-238.302c-0.054 0-0.106-0.008-0.16-0.008-19.546 28.962-52.668 48.042-90.172 48.042-37.494 0-70.608-19.080-90.15-48.042-0.056 0-0.11 0.008-0.166 0.008l-49.224 0.584-11.25 68.912 693.554 102.28c12.048 0 21.868 10.746 21.6 21.284l72.632 367.426c0 13.188-10.722 23.91-23.91 23.91zM800.062 221.704c44.982 0 81.576-36.566 81.574-81.522 0-44.954-36.594-81.522-81.574-81.522-44.926 0-81.466 36.568-81.466 81.522 0 44.956 36.54 81.522 81.466 81.522zM381.124 221.704c44.956 0 81.536-36.566 81.538-81.522 0-44.954-36.582-81.522-81.538-81.522-44.94 0-81.508 36.568-81.508 81.522 0 44.956 36.568 81.522 81.508 81.522zM919.108 399.236l-692.152-101.902-71.384 460.736h834.468l-70.932-358.834zM558.138 457.312c0.658-0.668 1.386-1.266 2.172-1.788 0.078-0.052 0.158-0.094 0.236-0.144 0.294-0.188 0.592-0.37 0.902-0.534 0.112-0.058 0.226-0.106 0.338-0.162 0.284-0.14 0.566-0.278 0.86-0.4 0.13-0.052 0.262-0.094 0.392-0.144 0.282-0.106 0.562-0.21 0.854-0.298 0.15-0.046 0.304-0.078 0.458-0.118 0.272-0.072 0.542-0.146 0.82-0.202 0.204-0.040 0.41-0.062 0.616-0.094 0.23-0.034 0.458-0.078 0.69-0.1 0.446-0.044 0.892-0.068 1.338-0.068 0.448 0 0.892 0.024 1.338 0.068 0.226 0.022 0.446 0.064 0.666 0.096 0.214 0.032 0.43 0.056 0.642 0.098 0.268 0.052 0.526 0.124 0.788 0.192 0.164 0.042 0.33 0.078 0.492 0.126 0.28 0.084 0.548 0.186 0.818 0.286 0.142 0.054 0.286 0.098 0.426 0.156 0.286 0.118 0.558 0.252 0.834 0.386 0.122 0.060 0.244 0.112 0.362 0.174 0.31 0.166 0.61 0.346 0.904 0.534 0.076 0.048 0.156 0.090 0.23 0.14 0.794 0.526 1.528 1.132 2.194 1.81l83.37 83.292c5.306 5.294 5.306 13.904 0 19.212-5.304 5.306-13.904 5.306-19.21 0l-60.264-60.208v142.418c0 7.508-6.076 13.586-13.588 13.586s-13.588-6.076-13.588-13.586v-142.398l-60.186 60.186c-5.304 5.306-13.906 5.306-19.21 0-5.308-5.308-5.308-13.906 0-19.212l83.306-83.304z" />
<glyph unicode="&#xe91f;" glyph-name="cartnull" data-tags="cartnull" d="M213.602 847.954c0 7.436-6.018 13.454-13.454 13.454h-175.152c-7.44 0-13.456-6.018-13.456-13.454s6.018-13.454 13.456-13.454h175.148c7.438 0 13.458 6.018 13.458 13.454zM990.39 781.924h-834.084c-13.056 0-23.674-10.614-23.516-25.724l70.162-452.87c-0.502-1.814-0.644-3.76-0.322-5.74l15.962-97.744c1.876-13.374 13.506-23.462 27.024-23.462h35.374c-3.392-10.452-5.248-21.59-5.248-33.158 0-59.358 48.282-107.624 107.624-107.624s107.624 48.268 107.624 107.624c0 11.568-1.856 22.708-5.25 33.158h210.070c-3.392-10.452-5.248-21.59-5.248-33.158 0-59.358 48.268-107.624 107.624-107.624s107.624 48.268 107.624 107.624c0 59.356-48.268 107.624-107.624 107.624-37.13 0-69.924-18.89-89.276-47.566-0.054 0-0.11 0.008-0.166 0.008h-235.94c-0.056 0-0.112-0.008-0.168-0.008-19.354 28.676-52.148 47.566-89.27 47.566-37.124 0-69.918-18.892-89.272-47.57-0.052 0-0.102 0.008-0.154 0.008l-48.74 0.578-11.138 68.236 686.726 101.272c11.93 0 21.624 10.638 21.362 21.070l71.916 363.808c-0.004 13.056-10.618 23.672-23.676 23.672zM798.186 223.942c44.51 0 80.714-36.208 80.714-80.716s-36.206-80.716-80.714-80.716-80.718 36.208-80.718 80.716 36.206 80.716 80.718 80.716zM383.364 223.942c44.51 0 80.718-36.208 80.718-80.716s-36.208-80.716-80.718-80.716c-44.508 0-80.714 36.208-80.714 80.716s36.204 80.716 80.714 80.716zM916.030 399.722l-685.312-100.896-70.68 456.19h826.226l-70.234-355.294zM549.202 553.388l-71.168-71.162c-5.254-5.256-5.254-13.77 0-19.024 2.628-2.628 6.070-3.942 9.512-3.942 3.444 0 6.884 1.314 9.512 3.942l71.168 71.16 71.206-71.212c2.626-2.628 6.070-3.942 9.512-3.942s6.882 1.314 9.51 3.942c5.254 5.256 5.254 13.77 0 19.024l-71.204 71.21 71.26 71.254c5.254 5.256 5.254 13.77 0 19.024-5.256 5.254-13.77 5.254-19.024 0l-71.26-71.254-71.196 71.202c-5.254 5.254-13.768 5.254-19.022 0-5.256-5.256-5.256-13.77 0-19.024l71.194-71.198z" />
<glyph unicode="&#xe920;" glyph-name="cartup" data-tags="cartup" d="M210.034 852.072c0 7.512-6.078 13.592-13.592 13.592h-176.958c-7.514 0-13.594-6.080-13.594-13.592s6.080-13.592 13.594-13.592h176.958c7.514 0 13.592 6.080 13.592 13.592zM994.818 785.362h-842.668c-13.194 0-23.918-10.724-23.76-25.988l70.886-457.54c-0.508-1.832-0.652-3.796-0.326-5.798l16.126-98.752c1.896-13.514 13.642-23.708 27.3-23.708h35.752c-3.426-10.56-5.302-21.812-5.302-33.502 0-59.966 48.764-108.732 108.718-108.732 59.968 0 108.746 48.766 108.748 108.732 0 11.69-1.876 22.942-5.304 33.502h212.238c-3.428-10.56-5.302-21.812-5.302-33.502 0-59.966 48.766-108.732 108.73-108.732 59.97 0 108.736 48.766 108.734 108.732 0 59.968-48.766 108.734-108.734 108.734-37.512 0-70.64-19.086-90.19-48.056-0.058 0-0.116 0.008-0.174 0.008h-238.378c-0.054 0-0.106-0.008-0.16-0.008-19.554 28.97-52.688 48.056-90.204 48.056-37.504 0-70.628-19.084-90.178-48.054-0.058 0-0.112 0.008-0.17 0.008l-49.244 0.584-11.252 68.936 693.794 102.312c12.048 0 21.848 10.752 21.58 21.292l72.686 367.558c0.002 13.194-10.75 23.918-23.946 23.918zM800.658 221.624c44.972 0 81.552-36.58 81.55-81.55 0-44.968-36.58-81.548-81.55-81.548-44.966 0-81.546 36.58-81.546 81.548 0 44.97 36.58 81.55 81.546 81.55zM381.55 221.624c44.97 0 81.562-36.58 81.564-81.55 0-44.968-36.594-81.548-81.564-81.548-44.956 0-81.538 36.58-81.538 81.548 0 44.97 36.582 81.55 81.538 81.55zM919.698 399.218l-692.368-101.938-71.41 460.898h834.762l-70.984-358.96zM490.044 545.118c3.478 0 6.956 1.328 9.61 3.982l60.288 60.23v-142.47c0-7.512 6.080-13.592 13.592-13.592s13.592 6.078 13.592 13.592v142.446l60.208-60.208c2.654-2.654 6.132-3.982 9.61-3.982s6.956 1.328 9.608 3.982c5.31 5.31 5.31 13.91 0 19.22l-83.314 83.314c-0.666 0.678-1.402 1.288-2.198 1.814-0.086 0.056-0.176 0.104-0.262 0.16-0.286 0.18-0.572 0.356-0.872 0.516-0.128 0.068-0.262 0.124-0.392 0.188-0.266 0.13-0.53 0.26-0.804 0.374-0.15 0.062-0.302 0.112-0.456 0.166-0.262 0.096-0.52 0.196-0.79 0.276-0.174 0.052-0.352 0.090-0.528 0.134-0.25 0.064-0.496 0.134-0.752 0.184-0.23 0.044-0.462 0.072-0.696 0.106-0.206 0.030-0.406 0.068-0.614 0.088-0.892 0.088-1.792 0.088-2.688 0-0.194-0.020-0.382-0.056-0.574-0.084-0.246-0.034-0.492-0.064-0.736-0.112-0.24-0.048-0.472-0.114-0.708-0.174-0.192-0.048-0.382-0.090-0.572-0.146-0.25-0.076-0.492-0.168-0.736-0.258-0.17-0.062-0.342-0.118-0.51-0.186-0.254-0.104-0.496-0.226-0.742-0.344-0.15-0.074-0.304-0.14-0.456-0.22-0.272-0.144-0.532-0.306-0.792-0.468-0.114-0.072-0.228-0.134-0.342-0.208-0.354-0.236-0.696-0.488-1.024-0.752-0.014-0.012-0.028-0.020-0.042-0.032-0.384-0.314-0.752-0.648-1.1-1.002l-83.418-83.336c-5.308-5.296-5.308-13.91 0-19.22 2.654-2.65 6.134-3.978 9.61-3.978z" />
<glyph unicode="&#xe921;" glyph-name="cctv" data-tags="cctv" d="M1010.53 751.712c-6.55 3.234-14.67 0.484-17.944-6.156l-118.236-241.792c-3.248-6.652-0.498-14.682 6.154-17.942 1.884-0.93 3.9-1.362 5.892-1.362 4.952 0 9.718 2.764 12.050 7.518l118.236 241.792c3.25 6.652 0.5 14.682-6.152 17.942zM895.484 820.68c-2.016 3.942-5.84 6.654-10.24 7.23l-756.544 97.884c0 0-3.3 0.446-8.618 0.446-15.442 0-66.388-4.506-73.904-62.564l-32.294-249.754c-0.208-1.164-4.884-28.838 11.628-51.338 10.66-14.51 27.136-23.298 48.968-26.128l332.384-42.984c-2.824-2.458-4.614-6.070-4.614-10.11v-403.41h-349.262v61.058c0 7.414-6 13.412-13.412 13.412-7.414 0-13.412-5.998-13.412-13.412v-148.91c0-7.412 5.998-13.41 13.412-13.41 7.412 0 13.412 5.998 13.412 13.41v61.032h362.674c7.412 0 13.396 5.998 13.396 13.414v416.816c0 2.796-0.854 5.392-2.314 7.54l265.506-34.334c0.576-0.066 1.152-0.106 1.726-0.106 4.848 0 9.378 2.632 11.764 6.954l189.536 344.732c2.12 3.874 2.202 8.576 0.208 12.532zM686.648 484.342l-608.736 78.724c-14.186 1.834-24.492 6.956-30.66 15.232-9.744 13.11-6.98 30.844-6.864 31.564l32.4 250.384c4.19 32.376 28.028 39.172 47.292 39.172 2.958 0 4.912-0.196 5.186-0.236l737.034-95.358-175.652-319.482zM405.76 607.454c3.51-0.46 6.994-0.682 10.452-0.682 40.246 0 74.508 30.136 79.694 70.134 5.63 44.006-25.54 84.422-69.492 90.092-44.594 5.92-84.474-26.010-90.12-69.438-2.75-21.296 2.96-42.408 16.084-59.434 13.136-17.040 32.088-27.922 53.382-30.672zM362.896 694.114c3.47 26.652 26.26 46.756 53.030 46.756 2.318 0 4.65-0.158 7.034-0.472 29.31-3.786 50.11-30.738 46.336-60.062-3.746-28.956-30.436-50.212-60.088-46.284-14.184 1.834-26.822 9.088-35.57 20.444-8.764 11.356-12.564 25.434-10.742 39.618z" />
<glyph unicode="&#xe922;" glyph-name="center" data-tags="center" d="M514.692 671.934c-76.252 0-138.298 62.046-138.298 138.3 0 76.252 62.046 138.298 138.298 138.298 76.254 0 138.3-62.046 138.3-138.298 0-76.254-62.046-138.3-138.3-138.3zM514.692 920.874c-61.018 0-110.638-49.634-110.638-110.64 0-61.004 49.622-110.64 110.638-110.64 61.020 0 110.64 49.634 110.64 110.64s-49.62 110.64-110.64 110.64zM578.386 159.254h-127.44c-7.644 0-13.83 6.188-13.83 13.83v173.254c-82.846 36.168-127.414 154.586-127.414 251.504 0 7.644 6.186 13.83 13.83 13.83h382.296c7.644 0 13.83-6.186 13.83-13.83 0-96.916-44.596-215.336-127.442-251.504v-173.254c0-7.642-6.184-13.83-13.83-13.83zM464.774 186.914h99.782v168.852c0 5.888 3.704 11.102 9.268 13.044 76.818 26.904 113.826 137.354 117.822 215.202h-353.932c3.996-77.846 40.976-188.296 117.796-215.202 5.564-1.944 9.264-7.156 9.264-13.044v-168.852zM514.692 53.072c-125.090 0-311.172 23.472-311.172 88.166 0 41.49 75.334 63.452 138.542 74.578 7.322 1.54 14.694-3.674 16.018-11.21 1.324-7.534-3.7-14.692-11.208-16.018-84.276-14.828-115.692-36.924-115.692-47.35 0-20.53 100.078-60.508 283.512-60.508 183.438 0 283.516 39.978 283.516 60.508 0 10.452-31.28 32.522-115.206 47.27-7.508 1.322-12.534 8.482-11.21 16.018 1.296 7.538 8.618 12.724 16.018 11.21 62.964-11.046 138.056-32.956 138.056-74.498 0-64.694-186.084-88.166-311.174-88.166zM514.692-53.138c-281.676 0-502.334 80.71-502.334 183.732 0 79.174 129.764 147.132 330.594 173.12 7.726 0.97 14.504-4.376 15.506-11.94 0.972-7.59-4.376-14.506-11.94-15.504-180.464-23.34-306.5-83.252-306.5-145.676 0-75.362 190.728-156.072 474.674-156.072 283.918 0 474.648 80.71 474.648 156.072 0 62.424-126.008 122.336-306.418 145.676-7.566 0.998-12.912 7.914-11.94 15.504 0.998 7.562 7.75 12.91 15.504 11.94 200.776-25.986 330.514-93.946 330.514-173.12 0-103.022-220.63-183.732-502.308-183.732z" />
<glyph unicode="&#xe923;" glyph-name="ceo" data-tags="ceo" d="M903.018 456.27c-31.086 0-60.054-9.15-84.424-24.846l33.444 217.848c11.484 74.62-10.126 150.27-59.28 207.546-49.208 57.354-120.746 90.244-196.292 90.244h-164.094c-75.52 0-147.030-32.89-196.212-90.218-49.184-57.302-70.792-132.95-59.306-207.572l33.538-217.88c-24.378 15.714-53.364 24.876-84.468 24.876-52.342 0-94.92-42.606-94.92-94.948 0-38.492 22.92-72.924 58.458-87.75 14.158-5.808 23.306-19.502 23.306-34.922v-81.842c0-74.904 60.95-135.828 135.878-135.828h27.7v-65.778c0-7.272 5.886-13.156 13.158-13.156s13.156 5.884 13.156 13.156v65.78h423.624v-52.624c0-7.274 5.882-13.156 13.156-13.156 7.272 0 13.158 5.882 13.158 13.156v52.624h27.752c74.902 0 135.826 60.924 135.824 135.828v81.842c0 15.444 9.122 29.136 23.306 34.974 35.538 14.824 58.51 49.258 58.51 87.698-0.002 52.342-42.604 94.948-94.972 94.948zM256.12 839.704c44.174 51.494 108.414 81.044 176.25 81.044h164.094c67.868 0 132.128-29.55 176.328-81.070 44.144-51.442 63.57-119.384 53.24-186.398l-38.004-247.544c-25.648-27.85-41.346-64.994-41.346-105.75v-40.372c-31.4 12.746-101.86 33.074-232.188 33.074-130.358 0-200.84-20.328-232.24-33.074v40.372c0 40.724-15.672 77.844-41.286 105.688l-38.116 247.606c-10.328 67.014 9.098 134.956 53.268 186.424zM929.434 297.934c-24.052-9.84-39.57-33.124-39.57-59.282v-81.842c0-60.386-49.132-109.518-109.516-109.518h-531.702c-60.41 0-109.566 49.132-109.566 109.518v81.842c0 26.132-15.546 49.384-39.546 59.258-25.644 10.662-42.216 35.562-42.216 63.414 0 37.85 30.784 68.632 68.608 68.632 71.69 0 130.020-58.304 130.020-129.968v-61.336c0-4.856 2.674-9.3 6.938-11.59 4.292-2.312 9.43-2.054 13.518 0.642 0.564 0.384 60.104 38.674 238.1 38.674 176.17 0 237.534-38.342 238.044-38.674 4.060-2.696 9.224-2.954 13.518-0.642 4.268 2.29 6.94 6.734 6.94 11.59v61.336c0 71.666 58.328 129.968 130.022 129.968 37.85 0 68.66-30.782 68.66-68.632-0.006-27.8-16.632-52.7-42.252-63.39z" />
<glyph unicode="&#xe924;" glyph-name="chart" data-tags="chart" d="M447.106-51.462c-239.714 0-434.748 195.022-434.748 434.736s195.034 434.734 434.748 434.734c7.56 0 13.678-6.118 13.678-13.678s-6.118-13.678-13.678-13.678c-224.634 0-407.392-182.746-407.392-407.378 0-224.622 182.758-407.38 407.392-407.38 224.622 0 407.378 182.76 407.378 407.38 0 7.558 6.12 13.678 13.68 13.678 7.558 0 13.678-6.12 13.678-13.678 0-239.716-195.022-434.736-434.736-434.736zM998.238 466.756c-0.132-0.026-0.346-0.026-0.534 0h-453.434c-7.56 0-13.68 6.118-13.68 13.678v453.464c0 7.56 6.12 13.678 13.68 13.678 238.806 0 464.656-224.568 467.086-463.24 0.376-1.228 0.562-2.538 0.562-3.9 0-7.56-6.118-13.68-13.68-13.68zM557.948 494.114h425.812c-8.2 216.366-209.448 417.636-425.812 425.852v-425.852z" />
<glyph unicode="&#xe925;" glyph-name="check" data-tags="check" d="M513.046-48.952c-277.924 0-504.054 226.116-504.054 504.054 0 256.538 191.918 471.838 446.434 500.786 7.412 0.984 14.604-4.622 15.504-12.32 0.876-7.684-4.648-14.63-12.334-15.492-240.348-27.346-421.602-230.682-421.602-472.974 0-262.5 213.55-476.052 476.050-476.052s476.050 213.55 476.050 476.052c0 242.304-181.282 445.64-421.658 472.988-7.684 0.862-13.208 7.808-12.334 15.492 0.876 7.698 7.958 13.236 15.506 12.32 254.542-28.946 446.488-244.246 446.488-500.798 0.002-277.94-226.126-504.056-504.050-504.056zM513.046 184.41c-2.162 0-4.294 0.494-6.264 1.478l-233.348 116.674c-6.918 3.458-9.708 11.87-6.262 18.788 3.5 6.918 11.896 9.668 18.788 6.262l219.018-109.51 169.824 498.202c2.514 7.33 10.472 11.266 17.776 8.738 7.326-2.49 11.238-10.446 8.75-17.762l-175.020-513.378c-1.31-3.83-4.21-6.904-7.958-8.436-1.696-0.714-3.5-1.056-5.304-1.056z" />
<glyph unicode="&#xe926;" glyph-name="clip" data-tags="clip" d="M521.72-56c-138.456 0-251.090 115.884-251.090 258.338v573.376c0 1.558 0.266 3.064 0.746 4.464 7.448 97.792 89.066 173.854 187.43 173.854 98.472 0 180.13-76.116 187.472-173.96 0.492-1.374 0.758-2.838 0.758-4.358v-583.236c0-67.682-55.050-122.734-122.732-122.734-67.656 0-122.708 55.052-122.708 122.734v514.064c0 7.542 6.102 13.642 13.642 13.642s13.644-6.102 13.644-13.642v-514.062c0-52.626 42.808-95.448 95.42-95.448 52.626 0 95.448 42.82 95.448 95.448v579.638c-0.266 0.906-0.426 1.852-0.48 2.838-4.782 85.108-75.262 151.792-160.464 151.792-85.136 0-155.602-66.682-160.438-151.804-0.052-0.972-0.212-1.918-0.454-2.824v-569.78c0-127.396 100.404-231.052 223.804-231.052 123.398 0 223.802 103.656 223.802 231.052v593.146c0 7.542 6.102 13.644 13.642 13.644s13.642-6.102 13.642-13.644v-593.148c0.004-142.454-112.632-258.338-251.084-258.338z" />
<glyph unicode="&#xe927;" glyph-name="clock" data-tags="clock" d="M898.268 776.738c-4.968 5.914-13.89 6.628-19.792 1.632-5.93-5.022-6.642-13.89-1.622-19.806 72.884-85.968 113.048-195.544 113.048-308.564 0-263.514-214.39-477.888-477.902-477.888s-477.888 214.374-477.888 477.888 214.374 477.89 477.888 477.89c113.448 0 223.27-40.384 309.25-113.694 5.86-5.064 14.768-4.35 19.804 1.58 5.054 5.9 4.338 14.768-1.564 19.806-91.070 77.648-207.372 120.418-327.49 120.418-279.010 0-506-226.99-506-506 0-278.998 226.99-506 506-506 279.012 0 506.014 227.002 506.014 506 0 119.664-42.526 235.706-119.746 326.738zM512 721.282c-7.768 0-14.054-6.286-14.054-14.054v-174.086c-39.834-6.712-70.28-41.426-70.28-83.14 0-46.504 37.83-84.334 84.334-84.334 18.188 0 35.036 5.806 48.824 15.634l193.002-193.002c2.746-2.744 6.344-4.12 9.94-4.12 3.594 0 7.192 1.374 9.938 4.12 5.49 5.49 5.49 14.384 0 19.876l-193.002 193.004c9.828 13.79 15.632 30.634 15.632 48.822 0 41.716-30.446 76.428-70.28 83.14v174.086c0.002 7.768-6.282 14.054-14.054 14.054zM568.222 450c0-30.994-25.212-56.218-56.22-56.218s-56.224 25.224-56.224 56.218c0 30.992 25.216 56.222 56.222 56.222 31.008 0 56.224-25.228 56.222-56.222z" />
<glyph unicode="&#xe928;" glyph-name="close" data-tags="close" d="M869.994 807.258c-81.722 81.74-185.504 131.866-300.124 144.968-7.732 1.112-14.692-4.642-15.56-12.374-0.89-7.718 4.658-14.682 12.376-15.56 108.218-12.386 206.23-59.726 283.426-136.92 186.414-186.414 186.414-489.754 0-676.196-186.428-186.386-489.768-186.386-676.196 0-186.4 186.442-186.4 489.78 0 676.196 77.22 77.194 175.236 124.546 283.454 136.932 7.718 0.88 13.266 7.844 12.376 15.56-0.868 7.732-8.062 13.444-15.56 12.374-114.606-13.102-218.402-63.24-300.154-144.982-197.374-197.386-197.374-518.568 0-715.968 98.702-98.684 228.342-148.042 357.984-148.042 129.64 0 259.282 49.358 357.978 148.042 197.378 197.402 197.378 518.584 0 715.97zM690.724 627.998c-5.492 5.492-14.39 5.492-19.882 0l-158.812-158.806-158.81 158.806c-5.494 5.492-14.39 5.492-19.884 0-5.492-5.494-5.492-14.392 0-19.886l158.81-158.804-158.81-158.804c-5.492-5.494-5.492-14.392 0-19.886 2.746-2.746 6.344-4.12 9.942-4.12 3.6 0 7.198 1.374 9.944 4.12l158.81 158.806 158.812-158.806c2.746-2.746 6.346-4.12 9.944-4.12 3.596 0 7.194 1.374 9.94 4.12 5.494 5.494 5.494 14.392 0 19.886l-158.808 158.804 158.808 158.804c5.49 5.494 5.49 14.392-0.004 19.886z" />
<glyph unicode="&#xe929;" glyph-name="cloud" data-tags="cloud" d="M478.734 434.186c-7.636 0-13.814 6.178-13.814 13.814 0 131.47 109.348 211.384 215.082 212.732 6.958 0.704 13.868-6.016 13.974-13.65 0.108-7.608-6.018-13.87-13.652-13.978-92.294-1.16-187.776-70.71-187.776-185.106 0-7.634-6.178-13.812-13.814-13.812zM677.626 102.636h-430.7c-135.598 0-245.918 110.316-245.918 245.89 0 135.57 110.306 245.888 245.892 245.888 7.636 0 13.814-6.176 13.814-13.812s-6.178-13.816-13.814-13.816c-120.356 0-218.264-97.908-218.264-218.262 0-120.356 97.922-218.266 218.292-218.266h430.702c175.206 0 317.738 142.532 317.738 317.738 0 174.396-141.21 316.444-315.308 317.738-154.758-1.104-320.28-100.63-320.28-317.734 0-7.636-6.176-13.814-13.814-13.814-7.634 0-13.814 6.178-13.814 13.814 0 224.066 172.158 342.56 344.286 345.312 0.404 0.026 0.784 0.054 1.188 0.054h4.992c0.432 0 0.836-0.028 1.24-0.054 187.59-3.348 339.134-156.97 339.134-345.312 0-190.422-154.946-345.364-345.366-345.364z" />
<glyph unicode="&#xe92a;" glyph-name="cloudconnect" data-tags="cloudconnect" d="M603.026 577.066h-226.526c-74.984 0-135.968 60.984-135.968 135.942s60.986 135.942 135.968 135.942c7.678 0 13.89-6.212 13.89-13.89s-6.212-13.89-13.89-13.89c-59.656 0-108.188-48.534-108.188-108.162s48.532-108.164 108.188-108.164h226.526c88.492 0 160.492 71.974 160.492 160.468 0 88.058-71.32 159.76-159.216 160.466-78.212-0.57-161.826-50.84-161.826-160.466 0-7.678-6.212-13.89-13.888-13.89-7.678 0-13.89 6.212-13.89 13.89 0 122.052 93.676 186.618 187.406 188.218 0.734 0.056 1.492 0.028 2.2 0.028 0.84-0.028 1.6 0.028 2.33-0.028 102.17-1.952 184.666-85.618 184.666-188.218-0.002-103.794-84.454-188.246-188.274-188.246zM600.72-55.712h-220.502c-73.194 0-132.742 59.522-132.742 132.688s59.546 132.712 132.712 132.712c7.678 0 13.89-6.21 13.89-13.888s-6.212-13.89-13.89-13.89c-57.866 0-104.934-47.066-104.934-104.934 0-57.84 47.096-104.906 104.962-104.906h220.504c85.942 0 155.856 69.91 155.856 155.826 0 85.538-69.262 155.178-154.608 155.856-75.96-0.57-157.158-49.376-157.158-155.856 0-7.676-6.212-13.888-13.89-13.888-7.676 0-13.888 6.212-13.888 13.888 0 119.068 91.37 182.060 182.766 183.608 0.758 0.054 1.464 0.028 2.17 0.028 0.76-0.028 1.518 0 2.278-0.028 99.644-1.898 180.108-83.53 180.108-183.608-0.002-101.246-82.39-183.608-183.634-183.608zM128.434 126.564c-3.554 0-7.108 1.358-9.82 4.070-53.010 53.010-83.408 130.462-83.422 212.552 0 82.064 30.412 159.544 83.422 212.556l28.972 28.974c5.426 5.426 14.216 5.426 19.642 0 5.424-5.426 5.424-14.216 0-19.642l-28.974-28.974c-47.842-47.856-75.284-118.172-75.284-192.914 0-74.766 27.442-145.084 75.284-192.91 5.426-5.428 5.426-14.216 0-19.642-2.712-2.712-6.266-4.070-9.82-4.070zM157.408 471.724c-7.676 0-13.888 6.212-13.888 13.89v75.39l-74.226-0.026c-7.664 0-13.89 6.212-13.89 13.888 0 7.678 6.212 13.892 13.89 13.892l88.114 0.026c3.676 0 7.216-1.464 9.822-4.068 2.604-2.606 4.070-6.132 4.070-9.82v-89.282c-0.002-7.678-6.214-13.89-13.892-13.89zM863.218 170.624c-3.552 0-7.11 1.356-9.82 4.068-5.426 5.426-5.426 14.216 0 19.642l28.972 28.974c100.972 100.972 100.972 284.85 0 385.824-5.428 5.426-5.428 14.216 0 19.64 5.426 5.426 14.214 5.426 19.64 0 111.254-111.254 111.254-313.85 0-425.106l-28.972-28.974c-2.714-2.714-6.268-4.068-9.82-4.068zM863.218 170.624c-3.692 0-7.216 1.464-9.82 4.068-2.606 2.606-4.070 6.13-4.070 9.822v89.28c0 7.678 6.212 13.89 13.89 13.89s13.888-6.212 13.888-13.89v-75.39l74.224 0.030c7.678 0 13.888-6.214 13.888-13.892s-6.21-13.888-13.888-13.888l-88.112-0.030z" />
<glyph unicode="&#xe92b;" glyph-name="cloudfast" data-tags="cloudfast" d="M646.212 275.054c-1.536 0-3.096 0.266-4.628 0.82-7.038 2.566-10.66 10.316-8.094 17.354l39.094 107.498-84.088 9.338c-4.232 0.476-7.988 2.91-10.158 6.586-2.168 3.678-2.486 8.146-0.846 12.088l56.208 134.93c2.882 6.918 10.898 10.198 17.722 7.288 6.904-2.87 10.158-10.806 7.3-17.71l-49.28-118.264 83.27-9.232c4.126-0.45 7.802-2.778 9.998-6.322 2.196-3.518 2.644-7.856 1.216-11.772l-44.994-123.688c-1.982-5.5-7.194-8.914-12.72-8.914zM674.78 107.856h-422.274c-132.946 0-241.106 108.16-241.106 241.080 0 132.918 108.148 241.064 241.080 241.064 7.486 0 13.544-6.058 13.544-13.542 0-7.486-6.058-13.544-13.544-13.544-118 0-213.994-95.992-213.994-213.978 0-118.002 96.006-213.994 214.020-213.994h422.274c171.776 0 311.52 139.744 311.52 311.494 0 170.982-138.448 310.236-309.138 311.506-151.726-1.058-314.006-98.65-314.006-311.506 0-7.486-6.058-13.542-13.544-13.542s-13.542 6.056-13.542 13.542c0 219.68 168.788 335.854 337.548 338.552 0.396 0.040 0.768 0.052 1.164 0.052h4.892c0.424 0 0.82-0.012 1.216-0.052 183.918-3.266 332.496-153.882 332.496-338.552 0-186.696-151.912-338.58-338.606-338.58z" />
<glyph unicode="&#xe92c;" glyph-name="cloudfiber" data-tags="cloudfiber" d="M681.456 896.946c-0.402 0.040-0.8 0.054-1.23 0.054h-4.968c-0.4 0-0.776-0.014-1.176-0.054-170.492-2.752-341.036-120.122-341.036-342.048 0-7.562 6.122-13.684 13.686-13.684 7.562 0 13.684 6.12 13.684 13.684 0 215.044 163.944 313.638 317.248 314.72 172.464-1.296 312.378-141.984 312.378-314.72 0-173.536-141.224-314.736-314.788-314.736h-426.666c-119.228 0-216.22 96.992-216.22 216.22 0 119.214 96.992 216.192 216.22 216.192 7.564 0 13.684 6.12 13.684 13.684s-6.12 13.684-13.684 13.684c-134.302 0-243.588-109.258-243.588-243.56s109.286-243.586 243.588-243.586h426.666c188.664 0 342.154 153.464 342.156 342.104 0 186.564-150.124 338.718-335.954 342.046zM781.226 59.196h-217.038c-4.956 19.204-20.108 34.352-39.324 39.316v70.156c0 7.564-6.122 13.686-13.686 13.686-7.562 0-13.684-6.122-13.684-13.686v-70.144c-19.218-4.954-34.376-20.11-39.328-39.328h-217.034c-7.562 0-13.684-6.12-13.684-13.684s6.122-13.684 13.684-13.684h217.046c6.094-23.586 27.526-41.052 52.974-41.052 25.468 0 46.924 17.466 53.024 41.052h217.050c7.562 0 13.682 6.12 13.682 13.684s-6.12 13.684-13.682 13.684zM511.152 18.144c-15.064 0-27.324 12.274-27.342 27.362 0 0.002 0 0.004 0 0.006 0 0.012-0.002 0.022-0.002 0.032 0.004 15.072 12.272 27.338 27.344 27.338 15.1 0 27.394-12.268 27.392-27.344 0.002-15.102-12.292-27.394-27.392-27.394zM679.692 738.214c7.564 0.094 13.632 6.294 13.524 13.858-0.108 7.552-6.974 14.126-13.846 13.51-108.162-1.364-203.978-86.942-213.6-193.368l0.268-2.418c0.188-4.972 0.32-9.928 0.32-14.9 0-7.562 6.122-13.684 13.684-13.684 7.564 0 13.686 6.122 13.686 13.682 0 5.292-0.134 10.598-0.376 16.732l-0.32 0.668c8.366 90.296 92.1 164.73 186.66 165.92z" />
<glyph unicode="&#xe92d;" glyph-name="cloudlinux" data-tags="cloudlinux" d="M682.418 517.764c-101.742-1.284-206.964-78.208-206.964-204.718 0-7.346 5.948-13.292 13.294-13.292s13.29 5.948 13.292 13.292c0 110.076 91.876 177.020 180.694 178.134 7.346 0.090 13.24 6.114 13.136 13.46-0.104 7.334-7.142 13.488-13.452 13.124zM686.162 645.34c-0.394 0.040-0.784 0.052-1.2 0.052h-4.83c-0.386 0-0.752-0.012-1.138-0.052-45.11-0.728-90.212-9.738-131.982-26.792-40.462 59.132-77.112 118.424-77.112 155.912v6.308c0 78.624-63.97 142.58-142.582 142.58-78.586 0-142.532-63.956-142.532-142.58v-5.4c0-42.536-51.948-117.814-97.77-184.236-57.322-83.038-89.034-131.378-74.508-159.172 2.386-4.528 7.010-7.124 11.786-7.124 2.076 0 4.208 0.48 6.152 1.514 6.516 3.402 9.034 11.436 5.634 17.944-7.814 14.926 40.708 85.216 72.794 131.742 50.392 73.018 102.496 148.514 102.496 199.334v5.4c0 63.956 52.002 115.996 115.948 115.996 63.968 0 115.994-52.040 115.994-115.996v-6.308c0-45.742 39.814-109.448 79.122-167.068-30.474-15.324-58.65-35.236-83.086-59.65-15.164 58.176-59.926 99.35-112.028 99.35-64.798 0-117.502-63.956-117.502-142.58 0-18.98 3.146-37.786 9.152-55.188-108.166-21.752-189.898-117.504-189.898-231.972 0-130.458 106.154-236.614 236.614-236.614h414.45c183.264 0 332.362 149.070 332.364 332.306-0.004 181.236-145.83 329.062-326.338 332.294zM680.134 7.32h-414.45c-115.814 0-210.028 94.216-210.028 210.032s94.212 210.032 210.028 210.032c7.346 0 13.292 5.944 13.292 13.292 0 7.346-5.944 13.292-13.292 13.292-6.67 0-13.274-0.292-19.808-0.836-6.206 15.93-9.476 33.532-9.476 51.382 0 63.954 40.786 115.996 90.918 115.996 44.81 0 82.768-41.636 89.778-97.592-42.666-53.178-69.374-123.336-69.374-209.872 0-7.346 5.946-13.292 13.292-13.292s13.292 5.946 13.292 13.292c0 208.914 159.25 304.7 308.164 305.75 167.532-1.258 303.44-137.934 303.44-305.75 0-168.57-137.18-305.726-305.776-305.726zM273.108 833.938c-29.31 0-53.168-23.844-53.168-53.168s23.858-53.17 53.168-53.17c29.312 0 53.17 23.846 53.17 53.17 0 29.322-23.858 53.168-53.17 53.168zM273.108 754.186c-14.668 0-26.584 11.928-26.584 26.584s11.918 26.584 26.584 26.584c14.67 0 26.586-11.928 26.584-26.584 0-14.656-11.916-26.584-26.584-26.584zM434.746 780.77c0 29.322-23.86 53.168-53.168 53.168-29.312 0-53.17-23.844-53.17-53.168s23.858-53.17 53.17-53.17c29.31 0 53.168 23.846 53.168 53.17zM354.992 780.77c0 14.656 11.918 26.584 26.586 26.584s26.584-11.928 26.584-26.584c0-14.656-11.916-26.584-26.584-26.584-14.67 0-26.586 11.928-26.586 26.584zM278.822 720.19c-6.622 3.102-14.566 0.324-17.732-6.31-3.142-6.634-0.312-14.564 6.308-17.706l54.208-25.728c1.818-0.858 3.764-1.286 5.712-1.286 1.946 0 3.892 0.428 5.688 1.286l54.26 25.728c6.646 3.142 9.476 11.074 6.334 17.706-3.166 6.66-11.216 9.438-17.708 6.31l-48.572-23.028-48.498 23.028z" />
<glyph unicode="&#xe92e;" glyph-name="cloudmanaged" data-tags="cloudmanaged" d="M681.31 627.706c-0.394 0.040-0.816 0.052-1.21 0.052h-4.856c-0.396 0-0.766-0.012-1.134-0.052-25.162-0.4-50.318-3.348-74.92-8.772l0.032 10.95 63.486 66.616c3.668 3.852 4.724 9.528 2.718 14.448l-27.074 65.836c-2.086 5.040-6.964 8.338-12.402 8.378l-91.036 0.646-22.562 22.6-2.348 92.014c-0.132 5.33-3.378 10.066-8.312 12.124l-65.652 27.418c-4.936 2.072-10.766 0.99-14.698-2.85l-64.676-63.898-31.98 0.132-66.79 63.45c-3.876 3.692-9.55 4.722-14.458 2.69l-65.784-27.1c-5.042-2.070-8.314-6.952-8.368-12.388l-0.686-91.062-22.614-22.524-91.988-2.334c-5.33-0.144-10.078-3.39-12.114-8.298l-27.402-65.6c-2.1-5.028-0.976-10.82 2.836-14.698l63.908-64.862-0.050-31.836-63.382-66.8c-3.668-3.866-4.722-9.514-2.704-14.434l27.006-65.836c2.084-5.040 6.964-8.336 12.402-8.378l91.038-0.646 22.562-22.626 0.064-2.712c-90.372-34.62-154.722-122.252-154.722-224.646 0-132.598 107.9-240.496 240.55-240.496h421.25c186.242 0 337.76 151.52 337.76 337.762 0 184.236-148.242 334.486-331.69 337.732zM675.24-20.768h-421.25c-117.742 0-213.53 95.758-213.53 213.47 0 117.692 95.76 213.454 213.474 213.454 7.468 0 13.51 6.042 13.51 13.51s-6.042 13.51-13.51 13.51c-20.33 0-40.076-2.546-58.946-7.318l-0.006 0.252c-0.078 3.45-1.502 6.778-3.932 9.23l-30.29 30.36c-2.534 2.52-5.936 3.946-9.472 3.972l-87.606 0.62-20.292 49.438 61.060 64.346c2.376 2.506 3.72 5.818 3.72 9.262l0.106 42.774c0 3.564-1.398 6.992-3.876 9.526l-61.512 62.42 20.556 49.226 88.61 2.256c3.458 0.092 6.756 1.504 9.186 3.944l30.346 30.242c2.532 2.506 3.958 5.91 3.984 9.458l0.658 87.634 49.394 20.344 64.334-61.1c2.508-2.362 5.804-3.694 9.262-3.708l42.906-0.184c2.824-0.726 6.992 1.372 9.552 3.892l62.25 61.496 49.292-20.568 2.244-88.65c0.080-3.456 1.502-6.756 3.958-9.196l30.292-30.344c2.506-2.52 5.91-3.946 9.448-3.972l87.608-0.62 20.318-49.424-61.14-64.162c-2.374-2.492-3.72-5.818-3.72-9.274l-0.074-23.442c-128.306-38.662-234.826-147.636-234.826-321.934 0-7.468 6.042-13.51 13.51-13.51 7.466 0 13.51 6.042 13.51 13.51 0 170.394 104.25 266.728 223.648 298.692 0.738 0.13 1.454 0.322 2.146 0.568 28.718 7.492 58.28 11.29 87.454 11.492 170.276-1.268 308.388-140.184 308.388-310.75-0.002-171.338-139.41-310.742-310.742-310.742zM452.372 567.426c12.536 29.95 12.614 63 0.264 93.082s-35.676 53.512-65.624 66.008c-14.856 6.214-30.534 9.368-46.574 9.368-49.32 0-93.44-29.342-112.412-74.756-25.86-61.894 3.404-133.244 65.204-159.066 14.91-6.228 30.636-9.38 46.708-9.38 49.34 0 93.46 29.33 112.434 74.744zM252.936 650.704c14.776 35.332 49.106 58.158 87.5 58.158 12.426 0 24.618-2.454 36.178-7.284 23.302-9.71 41.43-27.944 51.036-51.336 9.606-23.406 9.55-49.106-0.186-72.394-14.778-35.334-49.132-58.146-87.528-58.146-12.482 0-24.698 2.454-36.31 7.296-48.052 20.082-70.772 75.576-50.69 123.706zM679.278 497.986c-106.792-1.346-201.39-85.842-210.89-190.914l0.266-2.402c0.184-4.882 0.314-9.792 0.314-14.696 0-7.468 6.042-13.51 13.514-13.51 7.466 0 13.51 6.042 13.51 13.512 0 5.222-0.132 10.448-0.372 16.52l-0.316 0.658c8.262 89.134 90.932 162.638 184.292 163.812 7.468 0.092 13.458 6.214 13.352 13.682-0.106 7.454-6.942 13.642-13.67 13.338z" />
<glyph unicode="&#xe92f;" glyph-name="cloudown" data-tags="cloudown" d="M684.242 846.51c-0.402 0.040-0.802 0.054-1.23 0.054h-4.968c-0.428 0-0.83-0.014-1.23-0.054-175.734-3.114-324.826-138.096-340.82-309.942-0.628-7.11-0.412-14.324-0.16-21.594 0.12-3.448 0.242-6.894 0.242-10.368 0-7.562 6.12-13.682 13.682-13.682s13.682 6.118 13.682 13.682c0 3.794-0.132 7.564-0.252 11.33-0.214 6.12-0.456 12.24 0.066 18.2 14.792 159.032 153.914 283.792 317.278 285.048 172.314-1.336 312.106-141.944 312.106-314.578 0-173.464-141.126-314.592-314.59-314.592-7.562 0-13.684-6.12-13.684-13.684 0-7.562 6.122-13.682 13.684-13.682 188.56 0 341.956 153.394 341.956 341.958-0.004 186.478-150.028 338.576-335.762 341.904zM680.718 687.902c7.564 0.092 13.63 6.292 13.526 13.856-0.112 7.496-6.204 13.508-13.688 13.508-0.048 0-0.106 0-0.16 0-108.15-1.362-203.956-86.93-213.574-193.346l0.268-2.35c0.158-4.998 0.32-9.968 0.32-14.966 0-7.562 6.12-13.682 13.682-13.682s13.682 6.12 13.684 13.682c0 5.264-0.16 10.558-0.374 16.73l-0.32 0.668c8.362 90.284 92.086 164.71 186.636 165.9zM349.864 190.014h-98.262c-119.214 0-216.196 96.956-216.196 216.116 0 119.162 96.966 216.116 216.14 216.116 7.562 0 13.684 6.12 13.684 13.682s-6.12 13.682-13.684 13.682c-134.272 0-243.506-109.22-243.506-243.484 0-134.258 109.26-243.476 243.56-243.476h98.262c7.562 0 13.682 6.12 13.682 13.682 0.002 7.562-6.118 13.682-13.68 13.682zM603.136 153.428l-75.28-71.030v225.856c0 7.23-6.12 13.082-13.682 13.082-7.564 0-13.682-5.852-13.682-13.082v-225.888l-75.548 71.092c-5.504 5.154-14.15 4.914-19.348-0.592-5.172-5.506-4.916-14.162 0.588-19.348l98.61-92.81c2.646-2.484 6.012-3.712 9.38-3.712s6.762 1.256 9.378 3.744l98.342 92.81c5.508 5.184 5.746 13.844 0.56 19.318-5.154 5.508-13.812 5.772-19.318 0.56z" />
<glyph unicode="&#xe930;" glyph-name="cloudowner" data-tags="cloudowner" d="M496.554 298.46c0 110.278 92.056 177.346 181.042 178.466 7.362 0.092 13.266 6.126 13.162 13.488-0.102 7.348-6.294 13.368-13.474 13.148-101.942-1.288-207.366-78.362-207.366-205.104 0-7.362 5.956-13.318 13.318-13.318 7.362 0.002 13.32 5.96 13.318 13.32zM681.032 631.386c-0.392 0.038-0.782 0.052-1.198 0.052h-4.838c-0.39 0-0.754-0.012-1.144-0.052-165.93-2.68-331.912-116.924-331.912-332.924 0-7.362 5.958-13.318 13.318-13.318s13.318 5.956 13.318 13.318c0 209.304 159.554 305.276 308.762 306.33 167.854-1.262 304.026-138.202 304.026-306.33 0-168.908-137.446-306.316-306.368-306.316h-415.252c-116.042 0-210.452 94.398-210.452 210.438s94.41 210.436 210.452 210.436c7.362 0 13.316 5.958 13.316 13.318s-5.956 13.316-13.316 13.316c-130.724 0-237.084-106.348-237.084-237.070s106.362-237.072 237.084-237.072h415.252c183.618 0 333.004 149.36 333.004 332.952 0 181.586-146.108 329.684-326.968 332.922zM137.632 681.486h53.272c7.362 0 13.334 5.958 13.334 13.318s-5.97 13.318-13.332 13.318h-53.274c-7.36 0-13.316-5.958-13.316-13.318-0.002-7.36 5.954-13.318 13.316-13.318zM297.2 681.486h53.274c7.362 0 13.316 5.958 13.316 13.318s-5.956 13.318-13.318 13.318h-53.272c-7.36 0-13.318-5.958-13.318-13.318s5.956-13.318 13.318-13.318zM244.032 493.186c124.832 0 226.408 101.564 226.408 226.406 0 124.846-101.576 226.408-226.408 226.408-124.83 0-226.394-101.562-226.394-226.406s101.564-226.408 226.394-226.408zM244.032 919.364c39.012 0 75.44-11.25 106.232-30.66l-277.634-66.622c34.942 58.23 98.694 97.282 171.402 97.282zM57.59 791.296l319.95 76.772c40.656-36.594 66.262-89.596 66.262-148.476 0-110.16-89.61-199.77-199.772-199.77-110.146 0-199.758 89.61-199.758 199.77 0.002 25.262 4.726 49.436 13.318 71.704z" />
<glyph unicode="&#xe931;" glyph-name="cloudsecurity" data-tags="cloudsecurity" d="M502.598 237.516c-81.692 0-148.178-66.484-148.178-148.176s66.486-148.176 148.178-148.176 148.176 66.484 148.176 148.176-66.484 148.176-148.176 148.176zM502.598-31.894c-66.854 0-121.236 54.382-121.236 121.234s54.382 121.234 121.236 121.234c66.852 0 121.234-54.382 121.234-121.234s-54.382-121.234-121.234-121.234zM502.598 130.96c-7.444 0-13.472-6.024-13.472-13.468v-75.062c0-7.444 6.028-13.472 13.472-13.472s13.468 6.028 13.468 13.472v75.062c0 7.444-6.024 13.468-13.468 13.468zM678.714 952.168c-0.392 0.038-0.788 0.052-1.208 0.052h-4.894c-0.394 0-0.762-0.012-1.156-0.052-167.83-2.71-335.71-118.25-335.71-336.712 0-7.444 6.026-13.47 13.468-13.47 7.446 0 13.47 6.024 13.47 13.47 0 211.688 161.384 308.744 312.294 309.81 169.778-1.276 307.508-139.77 307.508-309.81 0-170.842-139.020-309.822-309.876-309.822h-218.3c5.010 8.528 14.274 14.286 24.874 14.286 7.444 0 13.47 6.022 13.47 13.468s-6.026 13.47-13.47 13.47c-25.744 0-47.458-17.506-53.856-41.224h-172.726c-117.368 0-212.846 95.474-212.846 212.844 0 117.356 95.478 212.82 212.846 212.82 7.444 0 13.47 6.024 13.47 13.47 0 7.444-6.026 13.47-13.47 13.47-132.208 0-239.788-107.554-239.788-239.76 0-132.22 107.58-239.788 239.788-239.788h170.804v-29.786c0-7.444 6.024-13.468 13.468-13.468s13.47 6.024 13.472 13.47v29.784h104.5v-29.786c0-7.444 6.024-13.468 13.47-13.468s13.47 6.024 13.468 13.468v29.786h90.822c185.718 0 336.818 151.070 336.816 336.764 0.004 183.658-147.778 333.438-330.708 336.714zM675.188 795.912c7.446 0.092 13.418 6.196 13.314 13.642-0.104 7.43-6.656 13.772-13.628 13.298-106.474-1.342-200.794-85.584-210.268-190.35l0.264-2.46c0.208-4.854 0.314-9.72 0.314-14.588 0-7.444 6.024-13.47 13.47-13.47s13.47 6.026 13.47 13.47c0 5.236-0.106 10.472-0.368 16.47l-0.316 0.658c8.236 88.886 90.666 162.16 183.748 163.33z" />
<glyph unicode="&#xe932;" glyph-name="cloudserver" data-tags="cloudserver" d="M835.106 376.792c-29.978 0-54.378-24.376-54.378-54.354 0-30.004 24.4-54.406 54.378-54.406 29.976 0 54.376 24.402 54.376 54.406 0 29.98-24.4 54.354-54.376 54.354zM835.106 295.224c-15.002 0-27.192 12.212-27.192 27.214 0 14.974 12.19 27.164 27.192 27.164s27.19-12.19 27.19-27.164c0-15-12.188-27.214-27.19-27.214zM962.452 479.284h-201.422c41.77 49.528 64.464 111.368 64.464 177.268 0 150.432-121.028 273.132-270.836 275.84-0.374 0.026-0.742 0.040-1.116 0.040h-3.93c-0.374 0-0.744-0.014-1.118-0.040-141.71-2.536-261.954-111.428-274.844-250.072-0.504-5.802-0.332-11.644-0.132-17.538 0.108-2.734 0.2-5.482 0.2-8.23 0-7.514 6.080-13.596 13.596-13.596 7.514 0 13.594 6.082 13.594 13.596 0 3.066-0.108 6.132-0.212 9.186-0.172 4.78-0.372 9.52 0.042 14.14 11.698 125.74 121.692 224.356 250.844 225.352 136.21-1.050 246.724-112.198 246.724-248.678 0-67.438-26.35-130.162-74.296-177.268h-471.202c-30.626 0-55.546-23.046-55.546-51.406v-19.574c-88.374 5.986-158.454 79.72-158.454 169.572 0 93.73 76.274 169.99 170.018 169.99 7.514 0 13.594 6.080 13.594 13.594s-6.080 13.596-13.594 13.596c-108.746 0-197.208-88.46-197.208-197.18 0-104.838 82.264-190.818 185.642-196.844v-164.086c0-28.358 24.92-51.402 55.546-51.402h709.644c30.59 0 55.496 23.044 55.496 51.4v210.934c0.002 28.36-24.904 51.406-55.494 51.406zM990.756 216.946c0-13.354-12.692-24.212-28.304-24.212h-709.644c-15.638 0-28.358 10.858-28.358 24.212v210.932c0 13.358 12.718 24.216 28.358 24.216v-0.002h709.644c15.612 0 28.304-10.858 28.304-24.214v-210.932zM551.79 800.332c7.488 0.094 13.516 6.268 13.41 13.768-0.108 7.448-6.16 13.422-13.596 13.422-0.054 0-0.106 0-0.186 0-87.73-1.116-165.464-70.578-173.256-154.828-0.052-0.57 0.2-3.756 0.224-4.34 0.134-3.916 0.24-7.872 0.24-11.802 0-7.514 6.080-13.596 13.594-13.596 7.516 0 13.596 6.080 13.598 13.594 0 4.248-0.108 8.524-0.57 13.648 6.558 70.802 72.274 129.192 146.542 130.134zM883.060 15.996h-215.622c-4.924 19.084-19.984 34.136-39.070 39.064v69.696c0 7.514-6.080 13.594-13.596 13.594-7.514 0-13.594-6.080-13.594-13.594v-69.696c-19.086-4.928-34.146-19.98-39.070-39.064h-215.622c-7.516 0-13.596-6.080-13.596-13.596 0-7.514 6.080-13.594 13.596-13.594h215.634c6.060-23.432 27.374-40.786 52.652-40.786s46.594 17.354 52.654 40.786h215.634c7.514 0 13.594 6.080 13.596 13.594-0.002 7.516-6.082 13.596-13.596 13.596zM614.772-24.788c-15.002 0-27.19 12.212-27.19 27.214 0 14.974 12.188 27.164 27.19 27.164s27.192-12.19 27.192-27.164c0-15-12.19-27.214-27.192-27.214z" />
<glyph unicode="&#xe933;" glyph-name="cloudup" data-tags="cloudup" d="M681.884 844.218c-0.402 0.040-0.802 0.054-1.232 0.054h-4.932c-0.4 0-0.832-0.014-1.23-0.054-174.86-3.096-323.21-137.406-339.116-308.39-0.63-7.102-0.416-14.284-0.162-21.492 0.122-3.43 0.242-6.858 0.242-10.316 0-7.584 6.136-13.72 13.72-13.72s13.718 6.136 13.718 13.72c0 3.778-0.13 7.53-0.254 11.254-0.212 6.108-0.454 12.166 0.068 18.088 14.7 158.148 153.030 282.208 315.478 283.454 171.346-1.328 310.32-141.132 310.32-312.798 0-172.498-140.316-312.812-312.788-312.812-7.584 0-13.718-6.134-13.718-13.716 0-7.584 6.134-13.72 13.718-13.72 187.61 0 340.224 152.64 340.224 340.252 0.004 185.546-149.288 336.886-334.056 340.196zM678.368 686.216c7.558 0.094 13.642 6.324 13.536 13.894-0.108 7.516-6.216 13.546-13.72 13.546-0.054 0-0.108 0-0.188 0-107.592-1.366-202.94-86.53-212.506-192.462l0.242-2.464c0.212-4.878 0.32-9.808 0.32-14.712 0-7.584 6.136-13.72 13.72-13.72s13.722 6.138 13.718 13.72c0 5.28-0.11 10.584-0.402 16.668l-0.294 0.616c8.334 89.732 91.568 163.722 185.574 164.914zM349.278 191.208h-97.758c-118.5 0-214.918 96.394-214.918 214.868s96.392 214.838 214.866 214.838c7.584 0 13.72 6.136 13.72 13.72s-6.136 13.72-13.72 13.72c-133.614 0-242.304-108.692-242.304-242.28 0-133.612 108.718-242.304 242.36-242.304h97.758c7.584 0 13.722 6.136 13.718 13.722-0.002 7.58-6.138 13.716-13.722 13.716zM521.82 312.47c-5.306 4.982-13.56 4.956-18.812-0.030l-97.826-92.316c-5.506-5.202-5.762-13.882-0.562-19.376 2.708-2.866 6.338-4.314 9.982-4.314 3.376 0 6.778 1.232 9.406 3.754l74.684 70.472v-224.634c0-7.116 6.136-12.872 13.72-12.872s13.72 5.76 13.718 12.874v224.674l74.958-70.542c5.522-5.172 14.176-4.93 19.402 0.59 5.2 5.52 4.93 14.202-0.59 19.402l-98.080 92.318z" />
<glyph unicode="&#xe934;" glyph-name="cloudwindows" data-tags="cloudwindows" d="M498.722 308.622c0 111.68 93.238 179.616 183.37 180.748 7.454 0.094 13.436 6.206 13.33 13.662-0.106 7.39-6.114 13.318-13.488 13.318-0.052 0-0.106 0-0.158 0-103.25-1.304-210.030-79.366-210.030-207.724 0-7.454 6.034-13.486 13.49-13.486 7.454-0.004 13.488 6.030 13.486 13.482zM685.544 645.816c-0.394 0.040-0.79 0.052-1.21 0.052h-4.876c-0.396 0-0.766-0.012-1.16-0.052-19.638-0.314-39.276-2.192-58.646-5.576-1.418 0.506-2.936 0.802-4.532 0.802h-308.036c-7.458 0-13.49-6.032-13.49-13.488v-170.090c0-7.454 6.034-13.476 13.49-13.476s13.488 6.022 13.488 13.476v156.6h213.028c-108.074-48.344-191.502-151.312-191.502-305.438 0-7.456 6.034-13.488 13.49-13.488s13.49 6.032 13.49 13.488c0 212.004 161.618 309.196 312.752 310.25 170.010-1.264 307.902-139.95 307.902-310.25 0-171.064-139.186-310.25-310.276-310.25h-420.584c-117.542 0-213.166 95.61-213.166 213.136 0 117.53 95.61 213.138 213.138 213.138 7.454 0 21.974-1.154 21.974 23.828v179.074c0 7.454-6.036 13.488-13.49 13.488h-235.112c-7.456 0-13.49-6.032-13.49-13.488v-196.422c0-6.77 5.034-12.512 11.766-13.382l88.228-11.368c-60.52-43.64-99.994-114.73-99.994-194.866 0-132.388 107.728-240.118 240.144-240.118h420.588c185.948 0 337.254 151.28 337.254 337.232 0 183.922-147.984 333.936-331.168 337.188zM45.706 442.99v171.076h208.132v-162.498c-34.724-0.714-67.656-8.838-97.286-22.85l-110.846 14.272zM32.216 653.796h235.114c7.456 0 13.488 6.034 13.488 13.49v228.526c0 3.9-1.688 7.614-4.624 10.17-2.938 2.582-6.916 3.74-10.708 3.188l-235.116-32.538c-6.678-0.922-11.644-6.626-11.644-13.358v-195.99c0-7.454 6.034-13.488 13.49-13.488zM45.706 851.524l208.132 28.808v-199.556h-208.132v170.748zM307.084 653.796h308.036c7.458 0 13.49 6.034 13.49 13.488v274.156c0 3.9-1.686 7.614-4.636 10.17-2.898 2.568-6.852 3.768-10.698 3.188l-308.038-42.548c-6.68-0.922-11.644-6.626-11.644-13.358v-231.608c0-7.454 6.034-13.488 13.49-13.488zM320.572 887.142l281.056 38.82v-245.186h-281.056v206.366z" />
<glyph unicode="&#xe935;" glyph-name="cluster" data-tags="cluster" d="M926.376 114.86c-16.814 0-32.456-5.132-45.444-13.912l-44.524 44.474c77.462 80.236 125.196 189.354 125.196 309.416 0 117.824-45.966 225.1-120.884 304.888l40.042 39.78c13.022-8.844 28.724-14.018 45.614-14.018 44.902 0 81.454 36.514 81.456 81.404 0 44.916-36.552 81.456-81.456 81.456-44.876 0-81.404-36.54-81.404-81.456 0-18.216 6.016-35.052 16.164-48.628l-39.576-39.318c-79.88 75.394-187.506 121.686-305.752 121.686-120.228 0-229.476-47.866-309.74-125.518l-45.638 45.584c9.088 13.134 14.43 29.048 14.43 46.194 0 44.916-36.526 81.456-81.43 81.456-44.902 0-81.43-36.54-81.43-81.456 0-44.89 36.528-81.404 81.43-81.404 17.964 0 34.578 5.856 48.058 15.742l45.632-45.572c-72.678-79.348-117.094-184.99-117.094-300.82 0-117.316 45.58-224.176 119.928-303.86l-50.644-50.324c-13.074 8.954-28.874 14.206-45.88 14.206-44.902 0-81.43-36.554-81.43-81.458 0-44.874 36.528-81.402 81.43-81.402 44.904 0 81.43 36.528 81.43 81.402 0 18.118-5.952 34.872-15.996 48.418l50.18 49.866c79.978-75.962 188.020-122.642 306.762-122.642 116 0 221.782 44.552 301.17 117.424l44.29-44.238c-10.226-13.618-16.294-30.528-16.294-48.826 0-44.876 36.53-81.402 81.404-81.402 44.902 0 81.454 36.528 81.456 81.402-0.002 44.904-36.554 81.456-81.456 81.456zM934.46 454.84c0-112.594-44.688-214.932-117.242-290.248l-184.64 184.432c25.388 27.996 40.88 65.128 40.88 105.816 0 38.722-14.052 74.204-37.292 101.674l185.298 184.084c70.044-74.87 112.996-175.384 112.996-285.758zM385.312 454.84c0 71.966 58.542 130.52 130.494 130.52 71.966 0 130.508-58.554 130.51-130.52 0-71.968-58.542-130.522-130.51-130.522-71.95 0-130.494 58.558-130.494 130.522zM926.376 921.204c29.952 0 54.312-24.36 54.312-54.312 0-29.914-24.36-54.26-54.312-54.26-29.928 0-54.26 24.346-54.26 54.26 0 29.952 24.332 54.312 54.26 54.312zM515.808 873.492c110.734 0 211.544-43.23 286.494-113.676l-185.362-184.144c-27.394 22.97-62.668 36.834-101.132 36.834-40.728 0-77.898-15.53-105.904-40.978l-184.642 184.42c75.342 72.73 177.802 117.544 290.546 117.544zM39.144 866.892c0 29.952 24.348 54.312 54.288 54.312s54.288-24.36 54.288-54.312c0-29.914-24.348-54.26-54.288-54.26s-54.288 24.346-54.288 54.26zM97.168 454.84c0 108.354 41.376 207.22 109.156 281.638l185.142-184.898c-20.836-26.73-33.296-60.296-33.296-96.74 0-38.206 13.664-73.27 36.348-100.586l-185.314-184.148c-69.474 74.764-112.036 174.862-112.036 284.734zM93.43-20.858c-29.94 0-54.288 24.334-54.288 54.26 0 29.952 24.348 54.314 54.288 54.314s54.288-24.362 54.288-54.314c0-29.926-24.348-54.26-54.288-54.26zM515.808 36.186c-111.232 0-212.458 43.618-287.508 114.632l185.298 184.134c27.544-23.528 63.236-37.778 102.21-37.778 36.49 0 70.098 12.496 96.844 33.388l185.124-184.916c-74.458-67.956-173.454-109.46-281.968-109.46zM926.376-20.858c-29.928 0-54.26 24.334-54.26 54.26 0 29.952 24.332 54.314 54.26 54.314 29.952 0 54.312-24.362 54.312-54.314 0-29.926-24.36-54.26-54.312-54.26z" />
<glyph unicode="&#xe936;" glyph-name="code" data-tags="code" d="M511.944-50.75c-275.058 0-498.828 223.77-498.828 498.828s223.77 498.828 498.828 498.828c118.406 0 233.068-42.148 322.84-118.696 5.686-4.854 6.374-13.398 1.534-19.084-4.892-5.714-13.438-6.402-19.098-1.52-84.904 72.366-193.298 112.214-305.276 112.214-260.126 0-471.744-211.616-471.744-471.742 0-260.114 211.618-471.742 471.744-471.742s471.756 211.628 471.756 471.742c0 111.554-39.648 219.736-111.62 304.602-4.842 5.7-4.154 14.244 1.56 19.084 5.686 4.828 14.256 4.126 19.070-1.574 76.15-89.746 118.074-204.144 118.074-322.114 0.002-275.056-223.768-498.826-498.84-498.826zM667.036 311.488c-3.464 0-6.93 1.322-9.574 3.966-5.29 5.292-5.29 13.862 0 19.15l113.472 113.472-113.472 113.472c-5.29 5.29-5.29 13.86 0 19.15s13.86 5.29 19.15 0l123.046-123.046c5.292-5.29 5.292-13.86 0-19.15l-123.046-123.048c-2.644-2.644-6.112-3.966-9.576-3.966zM356.892 311.488c-3.464 0-6.93 1.322-9.576 3.966l-123.046 123.048c-5.29 5.29-5.29 13.86 0 19.15l123.046 123.046c5.292 5.29 13.86 5.29 19.15 0s5.29-13.86 0-19.15l-113.472-113.472 113.472-113.472c5.29-5.29 5.29-13.86 0-19.15-2.644-2.644-6.108-3.966-9.574-3.966zM445.422 231.37c-1.416 0-2.858 0.212-4.286 0.69-7.088 2.378-10.924 10.050-8.556 17.138l135.426 406.278c2.38 7.088 10.104 10.912 17.138 8.556 7.090-2.354 10.926-10.024 8.57-17.126l-135.452-406.278c-1.89-5.662-7.166-9.258-12.84-9.258z" />
<glyph unicode="&#xe937;" glyph-name="coffe" data-tags="coffe" d="M790.556 509.956c7.518 81.458 12.992 140.854 12.992 140.854 0.352 3.874-0.942 7.708-3.562 10.582-2.618 2.876-6.314 4.508-10.202 4.508h-694.962c-3.886 0-7.584-1.632-10.204-4.508-2.618-2.862-3.914-6.708-3.564-10.582 0 0 50.42-551.154 55.28-602.786 8.152-86.558 62.13-104.722 105.964-104.722h395.254c61.728 0 104.156 42.32 110.716 110.47 3.398 35.166 24.608 264.656 39.74 428.608 87.41-5.62 156.594-70.202 156.594-148.816 0-58.084-38.65-111.366-98.44-135.682-7.068-2.864-10.468-10.934-7.582-18.002 2.186-5.376 7.342-8.614 12.792-8.614 1.73 0 3.51 0.324 5.216 1.024 70.256 28.586 115.652 91.88 115.652 161.274 0.002 93.030-80.228 169.512-181.684 176.392zM720.74 56.418c-5.208-54.332-35.548-85.48-83.188-85.48h-395.252c-48.392 0-73.334 25.316-78.436 79.678-4.372 46.534-45.774 498.866-53.9 587.642h664.678c-8.126-87.882-49.042-531.772-53.902-581.84zM268.588 761.124c7.638 0 13.82 6.18 13.82 13.818v132.444c0 7.64-6.184 13.82-13.82 13.82-7.638 0-13.82-6.182-13.82-13.82v-132.442c0-7.64 6.182-13.82 13.82-13.82zM442.302 726.872c7.638 0 13.82 6.182 13.82 13.82v200.946c0 7.64-6.18 13.82-13.82 13.82-7.638 0-13.818-6.182-13.818-13.82v-200.946c-0.002-7.638 6.18-13.82 13.818-13.82zM616.068 761.124c7.638 0 13.818 6.18 13.816 13.818v132.444c0 7.64-6.18 13.82-13.816 13.82-7.638 0-13.82-6.182-13.82-13.82v-132.442c0-7.64 6.182-13.82 13.82-13.82z" />
<glyph unicode="&#xe938;" glyph-name="color" data-tags="color" d="M802.342 436.214c2.026 4.91 0.894 10.55-2.85 14.31l-362.666 362.642v33.362c0 51.938-42.236 94.186-94.162 94.186-51.954 0-94.21-42.246-94.21-94.186v-198.964l-176.782-176.782c-17.798-17.796-27.592-41.452-27.592-66.594 0-25.14 9.794-48.8 27.592-66.594l189.348-189.348c17.796-17.798 41.438-27.608 66.594-27.608s48.798 9.81 66.594 27.608l279.87 279.864h116.136c5.306 0 10.1 3.194 12.128 8.104zM274.71 846.528c0 37.452 30.49 67.928 67.956 67.928 37.44 0 67.904-30.476 67.904-67.928v-36.848l-135.86-135.86v172.708zM668.64 454.37c-3.488 0-6.82-1.384-9.284-3.846l-283.714-283.716c-25.694-25.668-70.364-25.668-96.056 0l-189.348 189.348c-12.834 12.836-19.9 29.902-19.9 48.032s7.066 35.196 19.9 48.028l180.592 180.592c0.024 0.024 0.048 0.046 0.072 0.070l139.668 139.668v-250.25c0-7.256 5.872-13.128 13.128-13.128s13.128 5.872 13.128 13.128v253.74l321.694-321.666h-89.88zM841.982 326.452c-2.38 3.924-6.638 6.32-11.228 6.32-4.594 0-8.848-2.396-11.232-6.32-10.564-17.398-103.238-171.746-103.238-229.72 0-63.112 51.362-114.448 114.47-114.448s114.446 51.336 114.444 114.448c0 57.974-92.648 212.32-103.216 229.72zM830.754 8.54c-48.646 0-88.21 39.558-88.21 88.19 0 37.914 56.080 142.060 88.21 197.194 32.104-55.132 88.188-159.28 88.188-197.194 0-48.634-39.568-88.19-88.188-88.19z" />
</font>
</defs>
</svg>
